Скачать через торрент 30 шекелей в час 30 Shakh LeShaa Фильм бесплатно в хорошем качестве torrent

Скачивайте на UnionPeer.org фильмы через торрент без регистрации. Новинки кино в хорошем качестве через торрент. На UnionPeer.org можно скачать через торрент фильмы 2014 и 2015 годов. Самые новые фильмы.

Скачать торрент 30 шекелей в час 30 Shakh LeShaa бесплатно через .torrent фильм мультфильм сериал

Если у вас наблюдаются проблемы со скриншотами, переходом по ссылками, скачиванием торрентов - проблемы в блокировщике рекламы AdBlock. #хорошегоДня!


Статистика раздачи
Размер:  2.49 GB   |    Зарегистрирован:  8 месяцев   |    .torrent скачан:  19 раз   |   
Раздают:  1  
   
Загрузка...
 
Автор Сообщение

Galfimbul

avatar Galfimbul


30 шекелей в час / 30 Shakh LeSha'a

Год выпуска: 2012
Страна: Израиль
Жанр: драма
Продолжительность: 38

Перевод: Субтитры

Режиссёр: Сари Эзоуз, Давид Офек

В ролях: Рути Борштейн, София Острицкая, Самира Сарая, Йигал Адика, Владимир Фридман

Описание: Три молодые женщины с непростой судьбой - израильтянка Аснат, русская Ирена и арабка Амаль - работают на уборке этажей офисного здания в Тель-Авиве. За каждой работницей закреплён один этаж. Неожиданно, фирма трудоустройства, обеспечивающая женщин работой, предупреждает их о предстоящем увольнении, так как вместо них на эту же работу будут приняты работницы из Таиланда, которым будут платить значительно меньше. Не желая мириться с несправедливостью, женщины предлагают фирме, этажи которой они убирают, принять их на ту же работу по уборке, и таким образом значительно сократить средства на поддержание порядка, выплачиваемые фирме трудоустройства. Предложение принимается.

Доп. информация: КиноПоиск, IMDb
Первый сезон сериала "30 шекелей в час" был показан по израильскому телевидению в 2012 году, второй - в 2014.
Приблизительно, треть каждой серии - на русском языке.
2 приза и 3 номинации израильской академии телевидения (2012, 2014)

Ссылка на предыдущие и альтернативные раздачи: <a href="viewtopic.php?t=5358826" class="postLink">...5358826</a>

Сэмпл: http://www.mediafire.com/file/2u9badcd68g2bg8/Sample_30_%D1%88%D0%B5%D0%BA%D0%B5%D0%BB%D0%

Качество: WEB-DLRip
Формат: MP4
Видео: AVC 1280х720 16:9 25 кадров/сек 1028 Кбит/сек
Аудио: AAC 44.1 КГц 1 канал 93,6 Кбит/сек
Субтитры: русские (softsub, ASS), иврит (hardsub)

Реклама: отсутствует
1-й сезон, серии 1-8
Общее
Полное имя : 30 шекелей в час - S1E01.mp4
Формат : MPEG-4
Профиль формата : Base Media / Version 2
Идентификатор кодека : mp42
Размер файла : 297 Мбайт
Продолжительность : 36 м.
Режим общего битрейта : Переменный
Общий поток : 1125 Кбит/сек
Дата кодирования : UTC 2016-08-11 13:50:40
Дата пометки : UTC 2016-08-11 13:50:40
gsst : 0
gstd : 2212188

Видео
Идентификатор : 1
Формат : AVC
Формат/Информация : Advanced Video Codec
Профиль формата : Main@L3.1
Параметр CABAC формата : Да
Параметр ReFrames формата : 3 кадра
Идентификатор кодека : avc1
Идентификатор кодека/Информация : Advanced Video Coding
Продолжительность : 36 м.
Битрейт : 1028 Кбит/сек
Ширина : 1280 пикселей
Высота : 720 пикселей
Соотношение сторон : 16:9
Режим частоты кадров : Постоянный
Частота кадров : 25,000 кадров/сек
Цветовое пространство : YUV
Субдискретизация насыщенности : 4:2:0
Битовая глубина : 8 бит
Тип развёртки : Прогрессивная
Бит/(Пиксели*Кадры) : 0.045
Размер потока : 271 Мбайт (91%)
Заголовок : ISO Media file produced by Google Inc.
Дата кодирования : UTC 2016-08-11 13:50:40
Дата пометки : UTC 2016-08-11 13:50:40

Аудио
Идентификатор : 2
Формат : AAC
Формат/Информация : Advanced Audio Codec
Профиль формата : LC
Идентификатор кодека : 40
Продолжительность : 36 м.
Вид битрейта : Переменный
Битрейт : 93,6 Кбит/сек
Каналы : 1 канал
Расположение каналов : Front: C
Частота : 44,1 КГц
Метод сжатия : С потерями
Размер потока : 24,7 Мбайт (8%)
Заголовок : ISO Media file produced by Google Inc.
Дата кодирования : UTC 2016-08-11 13:50:40
Дата пометки : UTC 2016-08-11 13:50:40
<div class="clear" style="height: 8px;"></div>

Трекер:  [ 17-Фев-2017 19:00 ]

  

Скачать .torrent

Размер .torrent файла 14 KB


Размер: 2.49 GB
Хэш (hash) релиза: 858634745d244d2dc425bbe683e427bc8eb17e57
Подписка на обновления:

Торренты, похожие на 30 шекелей в час 30 Shakh LeShaa скачать торрент

Форум Название Автор Размер S L Добавлен
Зарубежные сериалы ·· 30 шекелей в час / 30 Shakh LeSha'a / Сезон: 1, 2 / Серии: 1-8 из 8; 1-10 из 10 (Сари Эзоуз, Давид Офек) [2012, Израиль, драма, WEB-DLRip] Original Heb + Rus, Heb Sub Galfimbul 63161434845.88 GB 0 0 1497074563

09:02

10-Июн-17

Еще никто не оставлял запись к записи скачать торрент 30 шекелей в час 30 Shakh LeShaa . Будь первым!

!Обратная связь