Скачать через торрент Союзники Allied Фильм бесплатно в хорошем качестве torrent

Скачивайте на UnionPeer.org фильмы через торрент без регистрации. Новинки кино в хорошем качестве через торрент. На UnionPeer.org можно скачать через торрент фильмы 2014 и 2015 годов. Самые новые фильмы.

Скачать торрент Союзники Allied бесплатно через .torrent фильм мультфильм сериал

Статистика раздачи
Размер:  2.18 GB   |    Зарегистрирован:  3 месяца 10 дней   |    .torrent скачан:  156 раз   |   
Раздают:  1  
   
 
Автор Сообщение

Galfimbul

avatar Galfimbul



Союзники / Allied
<span class="post-font-cursive1">«Nothing is as it seems»</span>

Страна: США, Великобритания
Жанр: боевик, триллер, драма, мелодрама, военный
Год выпуска: 2016
Продолжительность: 02:04:35
Перевод: Любительский (многоголосый закадровый) Paradox & Omskbird records
Cубтитры: английские
Оригинальная аудиодорожка: английская
Режиссер: Роберт Земекис / Robert Zemeckis
В ролях: Брэд Питт, Марион Котийяр, Лиззи Каплан, Аугуст Диль, Шарлотта Хоуп, Рэффи Кэссиди, Мэттью Гуд, Дэниэл Беттс, Саймон МакБерни, Джаред Харрис
Описание: 1942 год. Во время опасной миссии в Северной Африке разведчик Макс встречает участницу сопротивления Марианну. Их чувствам суждено подвергнуться тысяче испытаний, главным из которых станет испытание правдой…


Качество видео: BDRip / Allied.2016.1080p.BluRay.x264-SPARKS
Формат видео: AVI
Видео: XviD build 67, 720x304 (2.35:1), 23.976 fps, ~1846 kbps avg, 0.352 bit/pixel
Аудио 1: 48 kHz, AC3 Dolby Digital, 2/0 (L,R) ch, ~192 kbps avg
Аудио 2: 48 kHz, AC3 Dolby Digital, 3/2 (L,C,R,l,r) + LFE ch, ~448 kbps avg
Complete name : C:\Users\ИВАН\Desktop\Союзники (2016) BDRip\Союзники (2016) BDRip_ivanes20031987.avi
Format : AVI
Format/Info : Audio Video Interleave
Format profile : OpenDML
File size : 2.18 GiB
Duration : 2 h 4 min
Overall bit rate : 2 504 kb/s
Writing application : VirtualDubMod 1.5.10.3 | www.virtualdub-fr.org || (build 2550/release)
Writing library : VirtualDubMod build 2550/release

Video
ID : 0
Format : MPEG-4 Visual
Format profile : Advanced Simple@L5
Format settings, BVOP : 1
Format settings, QPel : No
Format settings, GMC : No warppoints
Format settings, Matrix : Custom
Codec ID : XVID
Codec ID/Hint : XviD
Duration : 2 h 4 min
Bit rate : 1 846 kb/s
Width : 720 pixels
Height : 304 pixels
Display aspect ratio : 2.35:1
Frame rate : 23.976 (24000/1001) FPS
Color space : YUV
Chroma subsampling : 4:2:0
Bit depth : 8 bits
Scan type : Progressive
Compression mode : Lossy
Bits/(Pixel*Frame) : 0.352
Stream size : 1.61 GiB (74%)
Writing library : XviD 67

Audio #1
ID : 1
Format : AC-3
Format/Info : Audio Coding 3
Mode extension : CM (complete main)
Format settings, Endianness : Big
Codec ID : 2000
Duration : 2 h 4 min
Bit rate mode : Constant
Bit rate : 192 kb/s
Channel(s) : 2 channels
Channel positions : Front: L R
Sampling rate : 48.0 kHz
Frame rate : 31.250 FPS (1536 spf)
Bit depth : 16 bits
Compression mode : Lossy
Stream size : 171 MiB (8%)
Alignment : Split accross interleaves
Interleave, duration : 42 ms (1.00 video frame)
Interleave, preload duratio : 500 ms

Audio #2
ID : 2
Format : AC-3
Format/Info : Audio Coding 3
Mode extension : CM (complete main)
Format settings, Endianness : Big
Codec ID : 2000
Duration : 2 h 4 min
Bit rate mode : Constant
Bit rate : 448 kb/s
Channel(s) : 6 channels
Channel positions : Front: L C R, Side: L R, LFE
Sampling rate : 48.0 kHz
Frame rate : 31.250 FPS (1536 spf)
Bit depth : 16 bits
Compression mode : Lossy
Stream size : 399 MiB (18%)
Alignment : Split accross interleaves
Interleave, duration : 42 ms (1.00 video frame)
Interleave, preload duratio : 500 ms
<div class="clear" style="height: 8px;"></div>

Трекер:  [ 17-Фев-2017 18:00 ]

  

Скачать .torrent

Размер .torrent файла 11 KB


Размер: 2.18 GB
Хэш (hash) релиза: 7b7bd82ddebd7c2f8fc0a1759d045adbb08e6dab
Подписка на обновления:

Торренты, похожие на Союзники Allied скачать торрент

Форум Название Автор Размер S L Добавлен
Зарубежные фильмы до 2016 ·· Союзники / Allied (Роберт Земекис / Robert Zemeckis) [2016, США, Великобритания, триллер, мелодрама, военный, DVD9 (Custom)] [PAL] Dub (BD CEE) + Sub Rus + Original Eng Galfimbul 74390835206.93 GB 0 0 1493224318

19:31

26-Апр-17

Трейлеры и дополнительные материалы ·· Союзники / Allied (Роберт Земекис / Robert Zemeckis) [2016, США | Великобритания | GK Films | Huahua Media, BDRip 720p] дополнительные материалы Galfimbul 21511919572 GB 2 0 1491133376

14:42

2-Апр-17

Зарубежные фильмы до 2016 ·· Союзники / Allied (Роберт Земекис / Robert Zemeckis) [2016, США, Великобритания, боевик, триллер, драма, мелодрама, военный, Blu-ray disc 1080p] [CEE] Dub + Sub Rus, Eng + Original Eng Galfimbul 4848471050945.15 GB 0 0 1490438042

13:34

25-Мар-17

Зарубежные фильмы 2016-2017 (Новинки зарубежного кино) ·· Союзники / Allied (Роберт Земекис / Robert Zemeckis) [2016, США, Великобритания, боевик, триллер, драма, BDRip-AVC] Dub + Original + Sub (rus, eng) Galfimbul 22942639232.14 GB 2 0 1488016495

12:54

25-Фев-17

Зарубежные фильмы 2016-2017 (Новинки зарубежного кино) ·· Союзники / Allied (Роберт Земекис / Robert Zemeckis) [2016, США, Великобритания, боевик, триллер, драма, BDRip-AVC] Dub + Sub (rus) Galfimbul 15048639821.4 GB 3 5 1488016485

12:54

25-Фев-17

Зарубежные фильмы до 2016 ·· Союзники / Allied (Роберт Земекис / Robert Zemeckis) [2016, США, Великобритания, боевик, триллер, драма, мелодрама, военный, BDRip 720p] Dub (iTunes) + Sub Rus, Eng + Original Eng Galfimbul 56216437125.24 GB 3 0 1487766793

15:33

22-Фев-17

Зарубежные фильмы до 2016 ·· Союзники / Allied (Роберт Земекис / Robert Zemeckis) [2016, США, Великобритания, боевик, триллер, драма, мелодрама, военный, BDRip 1080p] Dub (iTunes) + Sub Rus, Eng + Original Eng Galfimbul 1158278544610.79 GB 2 0 1487766790

15:33

22-Фев-17

Зарубежные фильмы 2016-2017 (Новинки зарубежного кино) ·· Союзники / Allied (Роберт Земекис / Robert Zemeckis) [2016, США, Великобритания, боевик, триллер, драма, мелодрама, военный, BDRip] Dub + Original Eng + Sub Rus, Eng Galfimbul 23442175042.18 GB 0 0 1487672906

13:28

21-Фев-17

Зарубежные фильмы 2016-2017 (Новинки зарубежного кино) ·· Союзники / Allied (Роберт Земекис / Robert Zemeckis) [2016, США, Боевик, триллер, драма, мелодрама, военный, BDRip] Dub (iTunes) + Sub Galfimbul 15481436091.44 GB 0 0 1487628057

01:00

21-Фев-17

Зарубежные фильмы 2016-2017 (Новинки зарубежного кино) ·· Союзники / Allied (Роберт Земекис) [2016 г., боевик, триллер, драма, военный, история, BDRip 1080p] iTunes Galfimbul 97486441519.08 GB 0 0 1487621589

23:13

20-Фев-17

Зарубежные фильмы 2016-2017 (Новинки зарубежного кино) ·· Союзники / Allied (Роберт Земекис / Robert Zemeckis) [2016, США, Великобритания, боевик, триллер, драма, мелодрама, военный, HDRip] MVO + Original Eng + Sub Eng Galfimbul 23432797192.18 GB 2 0 1487242721

13:58

16-Фев-17

Зарубежные фильмы 2016-2017 (Новинки зарубежного кино) ·· Союзники / Allied (Роберт Земекис) [2016 г., боевик, триллер, драма, военный, история, BDRip 1080p] Galfimbul 95693274618.91 GB 2 0 1487206276

03:51

16-Фев-17

Зарубежные фильмы 2016-2017 (Новинки зарубежного кино) ·· Союзники / Allied (Роберт Земекис) [2016 г., боевик, триллер, драма, военный, история, DVDScr] Line Galfimbul 22051164162.05 GB 0 0 1486099462

08:24

3-Фев-17

Зарубежные фильмы 2016-2017 (Новинки зарубежного кино) ·· Союзники / Allied (Роберт Земекис) [2016 г., боевик, триллер, драма, военный, история, DVDScr] Line Galfimbul 14680145921.37 GB 0 0 1486099457

08:24

3-Фев-17

Зарубежные фильмы 2016-2017 (Новинки зарубежного кино) ·· Союзники / Allied (Роберт Земекис) [2016 г., боевик, триллер, драма, военный, история, DVDScr] Звук с TS Galfimbul 14671974401.37 GB 2 0 1485490302

07:11

27-Янв-17

Зарубежные фильмы 2016-2017 (Новинки зарубежного кино) ·· Союзники / Allied (Роберт Земекис) [2016 г., боевик, триллер, драма, военный, история, DVDScr] Звук с TS Galfimbul 22055116802.05 GB 0 0 1485490298

07:11

27-Янв-17

Зарубежные фильмы 2016-2017 (Новинки зарубежного кино) ·· Союзники / Allied (Роберт Земекис) [2016, боевик, триллер, драма, мелодрама, военный, TeleSynch *PROPER*] Galfimbul 51142590654.76 GB 0 0 1483257817

11:03

1-Янв-17

Зарубежные фильмы 2016-2017 (Новинки зарубежного кино) ·· Союзники / Allied (Роберт Земекис) [2016 г., боевик, триллер, драма, военный, история, TS] Galfimbul 15643545601.46 GB 6 3 1481170210

07:10

8-Дек-16

Зарубежные фильмы 2016-2017 (Новинки зарубежного кино) ·· Союзники / Allied (Роберт Земекис) [2016 г., боевик, триллер, драма, военный, история, CAMRip] DUB Galfimbul 15649771521.46 GB 2 3 1480635697

02:41

2-Дек-16

Еще никто не оставлял запись к записи скачать торрент Союзники Allied . Будь первым!

!Обратная связь