Скачать через торрент Фортитьюд Fortitude Фильм бесплатно в хорошем качестве torrent

Скачивайте на UnionPeer.org фильмы через торрент без регистрации. Новинки кино в хорошем качестве через торрент. На UnionPeer.org можно скачать через торрент фильмы 2014 и 2015 годов. Самые новые фильмы.

Скачать торрент Фортитьюд Fortitude бесплатно через .torrent фильм мультфильм сериал

Статистика раздачи
Размер:  1.29 GB   |    Зарегистрирован:  3 месяца 10 дней   |    .torrent скачан:  37 раз   |   
Раздают:  1  
   
 
Автор Сообщение

Galfimbul

avatar Galfimbul




Фортитьюд / Fortitude
2 сезон, 1 серия

Год выпуска: 2015
Страна: Великобритания
Жанр: триллер, драма, детектив
Продолжительность: ~47 мин
Озвучание: профессиональное многоголосое закадровое (AlexFilm)
Субтитры: нет
Режиссёры: Сэм Миллер, Ричард Лэкстон, Хетти Макдональд, Ник Харран

В ролях: Кристофер Экклстон, Майкл Гэмбон, Ричард Дормер, Стэнли Туччи, Софи Гробёль, Николас Пиннок, Джессика Рэйн, Вероника Эчеги, Люк Тредэвэй, Сиенна Гиллори, Джонни Харрис, Даррен Бойд, Миа Ексен, Александра Моэн, Бьерн Хлинур Харальдссон, Аарон Маккаскер, Майкл Обиора, Эмиль Хостина, Чипо Чанг...
Описание: Очередное убийство в сонном городке — на этот раз на краю Арктики. Детектив Мортон прибывает в полярный Фортитьюд, чтобы расследовать волну загадочных преступлений в живописном и некогда тихом местечке.
Релиз:

Перевод: Константин Кривоногов
Монтаж и сведение звука: Михаил Шорыгин
Роли озвучивали:
<div style="margin-left: 2em" class="post-ul">
<ol class="post-ul">
Екатерина Муравицкая
Маргарита Корш
Михаил Суслов
Владимир Курдов
Кирилл Патрино
</ol>
</div>
Сэмпл: http://sendfile.su/1309739

Качество: HDTV 720p
Формат: MKV
Видео: 1280x720 (16:9), 25 fps, MPEG-4 AVC, ~3500 kbps avg, 0.152 bit/pixel
Аудио Rus: 48 kHz, AC3 Dolby Digital, 2/0 (L,R) ch, ~192.00 kbps
Аудио Eng: 48 kHz, AC3 Dolby Digital, 2/0 (L,R) ch, ~192.00 kbps
Формат : Matroska
Версия формата : Version 4 / Version 2
Размер файла : 1,28 Гбайт
Продолжительность : 47 м. 26 с.
Общий поток : 3854 Кбит/сек
Название фильма : Fortitude 2x01 @ AlexFilm
Дата кодирования : UTC 2017-02-17 10:33:45
Программа кодирования : mkvmerge v7.1.0 ('Good Love') 64bit built on Jul 27 2014 13:06:55
Библиотека кодирования : libebml v1.3.0 + libmatroska v1.4.1

Видео
Идентификатор : 1
Формат : AVC
Формат/Информация : Advanced Video Codec
Профиль формата : Main@L4
Параметр CABAC формата : Да
Параметр ReFrames формата : 4 кадра
Идентификатор кодека : V_MPEG4/ISO/AVC
Продолжительность : 47 м. 26 с.
Битрейт : 3500 Кбит/сек
Ширина : 1280 пикселей
Высота : 720 пикселей
Соотношение сторон : 16:9
Режим частоты кадров : Постоянный
Частота кадров : 25,000 кадров/сек
Цветовое пространство : YUV
Субдискретизация насыщенности : 4:2:0
Битовая глубина : 8 бит
Тип развёртки : Прогрессивная
Бит/(Пиксели*Кадры) : 0.152
Размер потока : 1,14 Гбайт (89%)
Библиотека кодирования : x264 core 148 r2708 86b7198
Настройки программы : cabac=1 / ref=2 / deblock=1:0:0 / analyse=0x1:0x111 / me=hex / subme=6 / psy=1 / psy_rd=1.00:0.00 / mixed_ref=1 / me_range=16 / chroma_me=1 / trellis=1 / 8x8dct=0 / cqm=0 / deadzone=21,11 / fast_pskip=1 / chroma_qp_offset=-2 / threads=12 / lookahead_threads=2 / sliced_threads=0 / nr=0 / decimate=1 / interlaced=0 / bluray_compat=0 / constrained_intra=0 / bframes=3 / b_pyramid=2 / b_adapt=1 / b_bias=0 / direct=1 / weightb=1 / open_gop=0 / weightp=1 / keyint=250 / keyint_min=25 / scenecut=40 / intra_refresh=0 / rc_lookahead=30 / rc=2pass / mbtree=1 / bitrate=3500 / ratetol=1.0 / qcomp=0.60 / qpmin=0 / qpmax=69 / qpstep=4 / cplxblur=20.0 / qblur=0.5 / vbv_maxrate=20000 / vbv_bufsize=25000 / nal_hrd=none / filler=0 / ip_ratio=1.40 / aq=1:1.00
Default : Да
Forced : Нет
Цветовой диапазон : Limited
Основные цвета : BT.709
Характеристики трансфера : BT.709
Коэффициенты матрицы : BT.709

Аудио #1
Идентификатор : 2
Формат : AC-3
Формат/Информация : Audio Coding 3
Расширение режима : CM (complete main)
Параметр Endianness формата : Big
Идентификатор кодека : A_AC3
Продолжительность : 47 м. 26 с.
Вид битрейта : Постоянный
Битрейт : 192 Кбит/сек
Каналы : 2 канала
Расположение каналов : Front: L R
Частота : 48,0 КГц
Частота кадров : 31,250 кадров/сек (1536 spf)
Метод сжатия : С потерями
Задержка видео : -5 мс.
Размер потока : 65,2 Мбайт (5%)
Заголовок : DD2.0 AlexFilm
Язык : Russian
Default : Да
Forced : Нет

Аудио #2
Идентификатор : 3
Формат : AC-3
Формат/Информация : Audio Coding 3
Расширение режима : CM (complete main)
Параметр Endianness формата : Big
Идентификатор кодека : A_AC3
Продолжительность : 47 м. 26 с.
Вид битрейта : Постоянный
Битрейт : 192 Кбит/сек
Каналы : 2 канала
Расположение каналов : Front: L R
Частота : 48,0 КГц
Частота кадров : 31,250 кадров/сек (1536 spf)
Метод сжатия : С потерями
Задержка видео : -5 мс.
Размер потока : 54,3 Мбайт (4%)
Заголовок : DD2.0 Original
Язык : English
Default : Нет
Forced : Нет
Внимание! Раздача ведётся путём добавления новых серий; при каждом добавлении создаётся новый торрент. Чтобы начать докачку новой серии, пользователям необходимо сделать следующее:
(1) остановить скачивание,
(2) удалить старый торрент у себя из клиента (старые серии удалять не надо),
(3) скачать новый торрент и запустить его у себя в клиенте вместо старого, при этом указать клиенту путь в старую папку куда и должно происходить скачивание новых серий.
Ваш клиент при этом должен произвести хеширование (проверку) старой папки (если не производит сам - помогите ему сделать это), и будет докачивать только те серии которых у вас ещё нет. Старые серии при этом не удаляются, а продолжают раздаваться!
Eсли вы уже удалили старые серии, то предотвратить повторную закачку старых серий можно, отжав галочку в соответствующих местах при запуске нового торрента. По возможности, желательно не удалять старые серии как можно дольше чтобы релизёр не столько продолжал раздавать старые серии, а смог сконцентрироваться на новых.

<a href="tracker.php?f=189,2366&nm=Fortitude" class="postLink">Ссылка на предыдущие и альтернативные раздачи</a>
<div class="clear" style="height: 8px;"></div>

Трекер:  [ 17-Фев-2017 17:00 ]

  

Скачать .torrent

Размер .torrent файла 13 KB


Размер: 1.29 GB
Хэш (hash) релиза: edb2c2aa4b18e78147c77f2e9b16a47f3c292ece
Подписка на обновления:

Еще никто не оставлял запись к записи скачать торрент Фортитьюд Fortitude . Будь первым!

!Обратная связь