Скачать порно через торрент Morning Noon and Night Утро,полдень и ночь UnionPeer.org бесплатно онлайн HD качество

Скачать новое порно 2015, 2014 новинки через торрент UnionPeer.org

Порно торрент бесплатно ЮнионПир.орг

Если у вас наблюдаются проблемы со скриншотами, переходом по ссылками, скачиванием торрентов - проблемы в блокировщике рекламы AdBlock. #хорошегоДня!


Статистика раздачи
Размер:  939 MB   |    Зарегистрирован:  9 месяцев   |    .torrent скачан:  61 раз   |   
Раздают:  1  
   
Загрузка...
 
Автор Сообщение

Galfimbul

avatar Galfimbul



Morning Noon and Night
Утро,полдень и ночь

Год производства:
1975 г.
Страна:
US
Жанр:
Oral,Anal Sex,Bareback
Продолжительность:
01:02:22
Студия:
Cosco Studio
Режиссер:
Nick Eliot
В ролях:
Dave Daniels,Greg Miers,Joe Gage,Michael Heath,Tony Lee
Описание:
Mustached and handsome Greg Miers and Dave Daniels search for true love among three humpy studs. Intellectual, though clumsy, sunny blond Michael Heath turns into a raving sex pig when the glasses come off, energetically 69ing, rough butt fucking, and lapping up Dave''s mancum. Greg takes a lunch break with macho construction worker Tony Lee''s thick, curved, menacing cock, munching deliriously until Tony gives up his juice. Dinner is shared by both men with chef Joe Gage, who gets skewered by an immense gourd before satisfying three-way sex.
Качество видео:
VHSRip
Формат видео:
WMV
Видео:
VC-1, 720x480, 29.970 fps,2 000 kb/s
Аудио:
WMA, 48.0 kHz, Lossy, 96.0 kb/s
Format : Windows Media
File size : 939 MiB
Duration : 1 h 2 min
Overall bit rate mode : Constant
Overall bit rate : 2 106 kb/s
Maximum Overall bit rate : 2 116 kb/s
Encoded date : UTC 2007-05-11 00:48:46.290

Video
ID : 2
Format : VC-1
Format profile : MP@ML
Codec ID : WMV3
Codec ID/Info : Windows Media Video 9
Codec ID/Hint : WMV3
Description of the codec : Windows Media Video 9
Duration : 1 h 2 min
Bit rate mode : Constant
Bit rate : 2 000 kb/s
Width : 720 pixels
Height : 480 pixels
Display aspect ratio : 3:2
Frame rate : 29.970 (29970/1000) FPS
Standard : NTSC
Color space : YUV
Chroma subsampling : 4:2:0
Bit depth : 8 bits
Scan type : Progressive
Compression mode : Lossy
Bits/(Pixel*Frame) : 0.193
Stream size : 892 MiB (95%)
Language : English (United States)

Audio
ID : 1
Format : WMA
Format version : Version 2
Codec ID : 161
Codec ID/Info : Windows Media Audio
Description of the codec : Windows Media Audio 9 - 64 kbps, 48 kHz, stereo (A/V) 1-pass CBR
Duration : 1 h 2 min
Bit rate mode : Constant
Bit rate : 96.0 kb/s
Channel(s) : 2 channels
Sampling rate : 48.0 kHz
Bit depth : 16 bits
Stream size : 42.8 MiB (5%)
Language : English (United States)

[/spoier]


Трекер:  [ 17-Фев-2017 17:00 ]

  

Скачать .torrent

Размер .torrent файла 19 KB


Размер: 939 MB
Хэш (hash) релиза: 410f25f1bd9b075d6311078a6cc4307082d84b7c

Еще никто не оставлял запись к записи скачать торрент Morning Noon and Night Утро,полдень и ночь . Будь первым!

!Обратная связь