Скачать через торрент Путь The Path Фильм бесплатно в хорошем качестве torrent

Скачивайте на UnionPeer.org фильмы через торрент без регистрации. Новинки кино в хорошем качестве через торрент. На UnionPeer.org можно скачать через торрент фильмы 2014 и 2015 годов. Самые новые фильмы.

Скачать торрент Путь The Path бесплатно через .torrent фильм мультфильм сериал

Если у вас наблюдаются проблемы со скриншотами, переходом по ссылками, скачиванием торрентов - проблемы в блокировщике рекламы AdBlock. #хорошегоДня!


Статистика раздачи
Размер:  2.95 GB   |    Зарегистрирован:  8 месяцев   |    .torrent скачан:  23 раза   |   
Раздают:  1  
   
Загрузка...
 
Автор Сообщение

Galfimbul

avatar Galfimbul


Путь / The Path

Год выпуска: 2017
Страна: США
Жанр: Драма, триллер
Продолжительность: ~ 00:50:00

Перевод: Профессиональный (многоголосый закадровый) (AMS)

Режиссёр: Майк Кэхилл, Майкл Уивер

В ролях: Хью Дэнси, Аарон Пол, Мишель Монахэн, Али Ан, Питер Фридман, Макс Эрих, Ariana Chantelle Cordero, Кларк Миддлтон, Кайли Вернофф, Уитни Краудер и другие

Описание:
Неофициальные организации в США набирают популярность. Так где-то на севере штата Нью-Йорк появляется странная группа людей, которая представляет из себя то ли объединение по интересам, то ли религиозный культ. В его состав входят необычные люди. Эдди переживает кризис веры, а его преданная супруга Сара делает все возможное, чтобы поддержать мужа. Во главе объединения стоит амбициозный лидер по имени Кэл. У него большие планы на будущее. Однако о своих задумках он пока ничего не говорит. Кто знает, чем обернется жизнь в составе этого загадочного культа. Время покажет, а пока Эдди и Сара ждут знака свыше.

<a href="tracker.php?f=2366,189,842&nm=The+Path" class="postLink">Cсылка на предыдущие и альтернативные раздачи</a> / Сэмпл

Качество: WEBRip 720p
Контейнер: MKV

Видео: AVC, 1280x720 (16:9), 23.976 fps, ~ 2100 kbps, 0.095 bit/pixel
Аудио 1: Русский, AC3, 48 KHz, 2 channels, 192 kbps
Аудио 2: Английский, AAC, 48 KHz, 2 channels
Субтитры: Английские (Softsub SRT)

Реклама: Присутствует звуковая (два раза: в начале и конце по 12 сек)
General
Unique ID : 60277516874310807318611738962019233952 (0x2D5907086A43E02C914560AF050430A0)
Complete name : /The.Path.S02.720p.WEBRip.AMS/The.Path.S02E01.720p.WEBRip.AMS.mkv
Format : Matroska
Format version : Version 4 / Version 2
File size : 848 MiB
Duration : 50mn 18s
Overall bit rate : 2 358 Kbps
Encoded date : UTC 2017-02-08 17:48:04
Writing application : mkvmerge v8.2.0 ('World of Adventure') 64bit
Writing library : libebml v1.3.1 + libmatroska v1.4.2

Video
ID : 1
Format : AVC
Format/Info : Advanced Video Codec
Format profile : High@L3.1
Format settings, CABAC : Yes
Format settings, ReFrames : 5 frames
Codec ID : V_MPEG4/ISO/AVC
Duration : 50mn 18s
Bit rate : 2 100 Kbps
Width : 1 280 pixels
Height : 720 pixels
Display aspect ratio : 16:9
Frame rate mode : Constant
Frame rate : 23.976 (24000/1001) fps
Color space : YUV
Chroma subsampling : 4:2:0
Bit depth : 8 bits
Scan type : Progressive
Bits/(Pixel*Frame) : 0.095
Stream size : 755 MiB (89%)
Default : Yes
Forced : No

Audio #1
ID : 2
Format : AC-3
Format/Info : Audio Coding 3
Mode extension : CM (complete main)
Format settings, Endianness : Big
Codec ID : A_AC3
Duration : 50mn 18s
Bit rate mode : Constant
Bit rate : 192 Kbps
Channel(s) : 2 channels
Channel positions : Front: L R
Sampling rate : 48.0 KHz
Frame rate : 31.250 fps (1536 spf)
Compression mode : Lossy
Stream size : 69.1 MiB (8%)
Language : Russian
Default : Yes
Forced : No

Audio #2
ID : 3
Format : AAC
Format/Info : Advanced Audio Codec
Format profile : HE-AAC / LC
Codec ID : A_AAC
Duration : 50mn 18s
Bit rate : 64.0 Kbps
Channel(s) : 2 channels
Channel positions : Front: L R
Sampling rate : 48.0 KHz / 24.0 KHz
Frame rate : 23.438 fps (1024 spf)
Compression mode : Lossy
Stream size : 23.0 MiB (3%)
Language : English
Default : No
Forced : No

Text
ID : 4
Format : UTF-8
Codec ID : S_TEXT/UTF8
Codec ID/Info : UTF-8 Plain Text
Duration : 48mn 46s
Bit rate : 68 bps
Count of elements : 750
Stream size : 24.4 KiB (0%)
Language : English
Default : No
Forced : No
Внимание! Раздача ведётся путём добавления новых серий; при каждом добавлении создаётся новый торрент. Чтобы начать докачку новой серии, пользователям необходимо сделать следующее:

1) остановить скачивание,
2) удалить старый торрент у себя из клиента (старые серии удалять не надо),
3) скачать новый торрент и запустить его у себя в клиенте вместо старого, при этом указать клиенту путь в старую папку куда и должно происходить скачивание новых серий.

Ваш клиент при этом должен произвести хеширование (проверку) старой папки (если не производит сам - помогите ему сделать это), и будет докачивать только те серии которых у вас ещё нет. Старые серии при этом не удаляются, а продолжают раздаваться!

Eсли вы уже удалили старые серии, то предотвратить повторную закачку старых серий можно, отжав галочку в соответствующих местах при запуске нового торрента. По возможности, желательно не удалять старые серии как можно дольше чтобы релизёр не столько продолжал раздавать старые серии, а смог сконцентрироваться на новых.»<a href="viewtopic.php?t=609808" class="postLink">Как закачать отдельный файл из торрента или докачать ранее пропущенные файлы торрента!</a>«
<div class="clear" style="height: 8px;"></div>

Трекер:  [ 17-Фев-2017 16:30 ]

  

Скачать .torrent

Размер .torrent файла 59 KB


Размер: 2.95 GB
Хэш (hash) релиза: 94bf81ab0374aa996c10b01323cf0c7879072b96
Подписка на обновления:

Еще никто не оставлял запись к записи скачать торрент Путь The Path . Будь первым!

!Обратная связь