Скачать через торрент В Филадельфии всегда солнечно Its Always Sunny in Philadelphia Фильм бесплатно в хорошем качестве torrent

Скачивайте на UnionPeer.org фильмы через торрент без регистрации. Новинки кино в хорошем качестве через торрент. На UnionPeer.org можно скачать через торрент фильмы 2014 и 2015 годов. Самые новые фильмы.

Скачать торрент В Филадельфии всегда солнечно Its Always Sunny in Philadelphia бесплатно через .torrent фильм мультфильм сериал

Статистика раздачи
Размер:  4.07 GB   |    Зарегистрирован:  8 дней   |    .torrent скачан:  16 раз   |   
Раздают:  1  
   
 
Автор Сообщение

Galfimbul

avatar Galfimbul


В Филадельфии всегда солнечно / It's Always Sunny in Philadelphia

Год выпуска: 2017
Страна: США
Жанр: Комедия, жёсткий ситком, чёрный юмор
Продолжительность: ~ 00:25:00

Перевод: Профессиональный (многоголосый закадровый) (AMS)

Режиссёр: Мэтт Шекман, Фред Сэвэдж, Дэниэл Эттиэс

В ролях: Гленн Хоуертон, Чарли Дэй, Роб МакЭлхенни, Кэйтлин Олсон, Дэнни ДеВито, Мэри Элизабет Эллис, Дэвид Хорнсби, Артемис Пебдани, Линн Мари Стюарт, Сэнди Мартин и другие

Описание:
Этот ситком повествует о четырех друзьях, которые держат ирландский бар в не самом лучшем районе Филадельфии. То же самое можно сказать и о самих героях — они враждебны и аморальны друг к другу, всегда ссорятся, врут и пытаются что-то друг другу доказать, попадая из-за этого в самые нелепые и смешнейшие ситуации.

<a href="tracker.php?f=2366,189,842&nm=It's+Always+Sunny+in+Philadelphia" class="postLink">Cсылка на предыдущие и альтернативные раздачи</a> / Сэмпл

Качество: WEB-DL 720p
Контейнер: MKV

Видео: AVC, 1920x1080 (16:9), 23.976 fps, ~ 4000 kbps, 0.181 bit/pixel
Аудио 1: Русский, AC3, 48 KHz, 2 channels, 192 kbps
Аудио 2: Английский, AAC, 48 KHz, 2 channels
Субтитры: Английские (Softsub SRT)

Реклама: Присутствует звуковая (два раза: в начале и конце по 12 сек)
General
Unique ID : 268076827123899955779428640802469722660 (0xC9ADB8083843AB6D80CF6F92669E3A24)
Complete name : /Its.Always.Sunny.in.Philadelphia.S12.2016.WEB-DL.720p.AMS.AMS/Its.Always.Sunny.in.Philadelphia.S12E01.2016.WEB-DL.720p.AMS.mkv
Format : Matroska
Format version : Version 4 / Version 2
File size : 745 MiB
Duration : 24mn 3s
Overall bit rate : 4 331 Kbps
Encoded date : UTC 2017-01-01 23:59:59
Writing application : mkvmerge v8.2.0 ('World of Adventure') 64bit
Writing library : libebml v1.3.1 + libmatroska v1.4.2

Video
ID : 1
Format : AVC
Format/Info : Advanced Video Codec
Format profile : High@L3.1
Format settings, CABAC : No
Format settings, ReFrames : 2 frames
Codec ID : V_MPEG4/ISO/AVC
Duration : 24mn 3s
Bit rate : 4 010 Kbps
Width : 1 280 pixels
Height : 720 pixels
Display aspect ratio : 16:9
Frame rate mode : Constant
Frame rate : 23.976 (24000/1001) fps
Color space : YUV
Chroma subsampling : 4:2:0
Bit depth : 8 bits
Scan type : Progressive
Bits/(Pixel*Frame) : 0.181
Stream size : 690 MiB (93%)
Language : English
Default : Yes
Forced : No
Color range : Limited
Color primaries : BT.709
Transfer characteristics : BT.709
Matrix coefficients : BT.709

Audio #1
ID : 2
Format : AC-3
Format/Info : Audio Coding 3
Mode extension : CM (complete main)
Format settings, Endianness : Big
Codec ID : A_AC3
Duration : 24mn 3s
Bit rate mode : Constant
Bit rate : 192 Kbps
Channel(s) : 2 channels
Channel positions : Front: L R
Sampling rate : 48.0 KHz
Frame rate : 31.250 fps (1536 spf)
Compression mode : Lossy
Stream size : 33.0 MiB (4%)
Language : Russian
Default : Yes
Forced : No

Audio #2
ID : 3
Format : AAC
Format/Info : Advanced Audio Codec
Format profile : LC
Codec ID : A_AAC
Duration : 24mn 3s
Bit rate : 125 Kbps
Channel(s) : 2 channels
Channel positions : Front: L R
Sampling rate : 48.0 KHz
Frame rate : 46.875 fps (1024 spf)
Compression mode : Lossy
Stream size : 21.5 MiB (3%)
Language : English
Default : No
Forced : No

Text #1
ID : 4
Format : UTF-8
Codec ID : S_TEXT/UTF8
Codec ID/Info : UTF-8 Plain Text
Duration : 23mn 55s
Bit rate : 89 bps
Count of elements : 436
Stream size : 15.7 KiB (0%)
Language : English
Default : No
Forced : No

Text #2
ID : 5
Format : UTF-8
Codec ID : S_TEXT/UTF8
Codec ID/Info : UTF-8 Plain Text
Duration : 24mn 0s
Bit rate : 126 bps
Count of elements : 646
Stream size : 22.3 KiB (0%)
Title : SDH
Language : English
Default : No
Forced : No
Внимание! Раздача ведётся путём добавления новых серий; при каждом добавлении создаётся новый торрент. Чтобы начать докачку новой серии, пользователям необходимо сделать следующее:

1) остановить скачивание,
2) удалить старый торрент у себя из клиента (старые серии удалять не надо),
3) скачать новый торрент и запустить его у себя в клиенте вместо старого, при этом указать клиенту путь в старую папку куда и должно происходить скачивание новых серий.

Ваш клиент при этом должен произвести хеширование (проверку) старой папки (если не производит сам - помогите ему сделать это), и будет докачивать только те серии которых у вас ещё нет. Старые серии при этом не удаляются, а продолжают раздаваться!

Eсли вы уже удалили старые серии, то предотвратить повторную закачку старых серий можно, отжав галочку в соответствующих местах при запуске нового торрента. По возможности, желательно не удалять старые серии как можно дольше чтобы релизёр не столько продолжал раздавать старые серии, а смог сконцентрироваться на новых.»<a href="viewtopic.php?t=609808" class="postLink">Как закачать отдельный файл из торрента или докачать ранее пропущенные файлы торрента!</a>«
<div class="clear" style="height: 8px;"></div>

Трекер:  [ 17-Фев-2017 16:00 ]

  

Скачать .torrent

Размер .torrent файла 82 KB


Размер: 4.07 GB
Хэш (hash) релиза: f9e771301aa7c8d8736d4b9dc452ceea6727c4a6
Подписка на обновления:

Еще никто не оставлял запись к записи скачать торрент В Филадельфии всегда солнечно Its Always Sunny in Philadelphia . Будь первым!

!Обратная связь