Скачать через торрент Волшебники The Magicians Фильм бесплатно в хорошем качестве torrent

Скачивайте на UnionPeer.org фильмы через торрент без регистрации. Новинки кино в хорошем качестве через торрент. На UnionPeer.org можно скачать через торрент фильмы 2014 и 2015 годов. Самые новые фильмы.

Скачать торрент Волшебники The Magicians бесплатно через .torrent фильм мультфильм сериал

Статистика раздачи
Размер:  14.01 GB   |    Зарегистрирован:  11 дней   |    .torrent скачан:  175 раз   |   
Раздают:  1  
   
 
Автор Сообщение

Galfimbul

avatar Galfimbul


Волшебники / The Magicians

Год выпуска: 2017
Страна: США
Жанр: Ужасы, фэнтези, драма, детектив
Продолжительность: 00:42:00
Перевод: Любительский (многоголосый закадровый) Alternative Production
присутствует ненормативная лексика!
Режиссёр: Скотт Смит, Майк Кэхилл, Ян Элиасберг

В ролях: Эсме Бьянко, Стелла Маив, Джейсон Ральф, Майкл Кэссиди, Саммер Бишил, Дэвид Колл, Рик Уорси, Темби Лок, Арджун Гупта, Хейл Эйплмен и др.
Описание:
В один прекрасный момент несколько 20-летних подростков удивительным образом оказываются в университете магии Брэйкбиллз, находящемся в Нью-Йорке. Парни делают необычное открытие, вносящее кардинальные перемены в их жизнь: как оказалось, умопомрачительный мир, о котором они так часто читали в детские годы, действительно есть. Не говоря уже о том, что, у всех у них есть собственные волшебные возможности. Но скоро обнаруживается, что жители данной скрытой от постороннего взгляда местности представляют собой гигантскую опасность для всего населения Земли.

Качество: WEB-DL 1080p
Формат: MKV
Видео кодек: H.264
Аудио кодек: AC3
Видео: H.264, 1920x1080 (16:9), 23.976 fps, 5 159 Kbps, 0.104 bit/pixel
Аудио 1: AC3 Dolby Digital, 48 kHz, 3/2 (L,C,R,l,r) + LFE ch, 384 kbps
Аудио 2: AC3 Dolby Digital, 48 kHz, 3/2 (L,C,R,l,r) + LFE ch, 384 kbps
Субтитры: отсутствуют
Реклама: аудио (два раза, в начале и конце, по 5 сек.)

Релиз
General
Unique ID : 243089486466912901658159365913801461247 (0xB6E155058105F1FAA4DC2C6C71990DFF)
Complete name : F:\[Фильмы]\Волшебники 2 сезон [Alternative Production] 1080p\The Magicians S02E01 1080p [Alt Pro].mkv
Format : Matroska
Format version : Version 4 / Version 2
File size : 1.91 GiB
Duration : 46mn 3s
Overall bit rate : 5 927 Kbps
Encoded date : UTC 2017-01-26 21:50:32
Writing application : mkvmerge v8.3.0 ('Over the Horizon') 64bit
Writing library : libebml v1.3.1 + libmatroska v1.4.2
Attachments : poster (6).jpg

Video
ID : 1
Format : AVC
Format/Info : Advanced Video Codec
Format profile : High@L4
Format settings, CABAC : Yes
Format settings, ReFrames : 4 frames
Codec ID : V_MPEG4/ISO/AVC
Duration : 46mn 2s
Bit rate : 5 159 Kbps
Width : 1 920 pixels
Height : 1 080 pixels
Display aspect ratio : 16:9
Frame rate mode : Constant
Frame rate : 23.976 (24000/1001) fps
Color space : YUV
Chroma subsampling : 4:2:0
Bit depth : 8 bits
Scan type : Progressive
Bits/(Pixel*Frame) : 0.104
Stream size : 1.66 GiB (87%)
Language : English
Default : Yes
Forced : No
Color range : Limited
Color primaries : BT.709
Transfer characteristics : BT.709
Matrix coefficients : BT.709

Audio #1
ID : 2
Format : AC-3
Format/Info : Audio Coding 3
Mode extension : CM (complete main)
Format settings, Endianness : Big
Codec ID : A_AC3
Duration : 46mn 3s
Bit rate mode : Constant
Bit rate : 384 Kbps
Channel(s) : 6 channels
Channel positions : Front: L C R, Side: L R, LFE
Sampling rate : 48.0 KHz
Frame rate : 31.250 fps (1536 spf)
Compression mode : Lossy
Stream size : 126 MiB (6%)
Title : Alt Pro
Language : Russian
Default : Yes
Forced : No

Audio #2
ID : 3
Format : AC-3
Format/Info : Audio Coding 3
Mode extension : CM (complete main)
Format settings, Endianness : Big
Codec ID : A_AC3
Duration : 46mn 2s
Bit rate mode : Constant
Bit rate : 384 Kbps
Channel(s) : 6 channels
Channel positions : Front: L C R, Side: L R, LFE
Sampling rate : 48.0 KHz
Frame rate : 31.250 fps (1536 spf)
Compression mode : Lossy
Stream size : 126 MiB (6%)
Language : English
Default : No
Forced : No
Внимание! Раздача ведётся путём добавления новых серий; при каждом добавлении создётся новый торрент. Чтобы начать докачку новой серии, пользователям необходимо сделать следующее:

Остановить скачивание.
Удалить старый торрент у себя из клиента (старые серии удалять не надо).
Скачать новый торрент и запустить его у себя в клиенте вместо старого, при этом указать клиенту путь в старую папку куда и должно происходить скачивание новых серий.

Ваш клиент при этом должен произвести хеширование (проверку) старой папки (если не производит сам - помогите ему сделать это), и будет докачивать только те серии которых у вас ещё нет. Старые серии при этом не удаляются, а продолжают раздаваться!
Eсли вы уже удалили старые серии, то предотвратить повторную закачку старых серий можно, отжав галочку в соответсвующих местах при запуске нового торрента. По возможности, желательно не удалять старые серии как можно дольше чтобы релизёр не столько продолжал раздавать старые серии, а смог сконцентрироваться на новых. Как закачать отдельный файл из торрента или докачать ранее пропущенные файлы торрента!


Трекер:  [ 18-Мар-2017 12:21 ]

  

Скачать .torrent

Размер .torrent файла 36 KB


Размер: 14.01 GB
Хэш (hash) релиза: 098342ca212a67b53d46e35ec84fdd4bd570c34c
Подписка на обновления:

bot

Раздача обновлена!
Перекачайте торрент-файл.

bot

Раздача обновлена!
Перекачайте торрент-файл.

bot

Раздача обновлена!
Перекачайте торрент-файл.

bot

Раздача обновлена!
Перекачайте торрент-файл.

Хотите добавить комментарий к записи скачать торрент Волшебники The Magicians

!Обратная связь