Скачать через торрент Легион Legion Фильм бесплатно в хорошем качестве torrent

Скачивайте на UnionPeer.org фильмы через торрент без регистрации. Новинки кино в хорошем качестве через торрент. На UnionPeer.org можно скачать через торрент фильмы 2014 и 2015 годов. Самые новые фильмы.

Скачать торрент Легион Legion бесплатно через .torrent фильм мультфильм сериал

Статистика раздачи
Размер:  13.64 GB   |    Зарегистрирован:  6 дней   |    .torrent скачан:  270 раз   |   
Раздают:  1  
   
 
Автор Сообщение

Galfimbul

avatar Galfimbul




Легион / Legion

Год выпуска: 2017
Страна: США
Жанр: Фантастика, боевик, драма
Продолжительность: ~ 01:10:00
Перевод: Профессиональный (многоголосый закадровый) OmskBird
Режиссёр: Майкл Аппендаль, Ной Хоули, Дэнни Гордон
В ролях: Дэн Стивенс, МакКензи Грэй, Скотт Лоуренс, Кэтрин Аселтон, Джереми Харрис, Билл Ирвин, Рэйчел Келлер, Эмбер Мидфандер, Обри Плаза, Люк Росслер и др.
Описание: Дэвиду Хэллеру поставлен диагноз — множественное расстройство личности. Постепенно выясняется, что картины и голоса, которые он видит и слышит, вполне реальны, а не бред его воспаленного разума.
Доп. информация:
Релиз-группа:
Паревод: Анна Киреева
Роли озвучивали:Дмитрий Виноградов, Семён Ващенко, Павел Ярощик, Ольга Федорова
Звукорежиссер: Павел Ярощик
Монтаж и сведение звука: Юрий Гамов

Качество: WEB-DL 1080p
Контейнер: MKV
Видео: H.264, 1920x1080 (16:9), 23,976 fps, ~5200 kbps, 0.104 bit/pixel
Аудио # rus: AC3, 48 kHz, 6 ch, 384 kbps - OmskBird
Аудио # eng: AC3, 48 kHz, 6 ch, 384 kbps
Субтитры: Английские
Реклама:
Отсутствует
General
Unique ID : 188394638634217444062775639951194278491 (0x8DBB7CD2BF96474AAA2A6A5145414A5B)
Complete name : G:\Films\Legion.S01.1080p.WEB-DL.OmskBird\Legion.S01E01.1080p.WEB-DL.OmskBird.mkv
Format : Matroska
Format version : Version 4 / Version 2
File size : 2.91 GiB
Duration : 1h 10mn
Overall bit rate : 5 939 Kbps
Encoded date : UTC 2017-02-10 14:03:22
Writing application : mkvmerge v9.7.1 ('Pandemonium') 64bit
Writing library : libebml v1.3.4 + libmatroska v1.4.5

Video
ID : 1
Format : AVC
Format/Info : Advanced Video Codec
Format profile : High@L4
Format settings, CABAC : Yes
Format settings, ReFrames : 4 frames
Codec ID : V_MPEG4/ISO/AVC
Duration : 1h 10mn
Bit rate : 5 169 Kbps
Width : 1 920 pixels
Height : 1 080 pixels
Display aspect ratio : 16:9
Frame rate mode : Constant
Frame rate : 23.976 (24000/1001) fps
Color space : YUV
Chroma subsampling : 4:2:0
Bit depth : 8 bits
Scan type : Progressive
Bits/(Pixel*Frame) : 0.104
Stream size : 2.53 GiB (87%)
Language : English
Default : Yes
Forced : No
Color range : Limited
Color primaries : BT.709
Transfer characteristics : BT.709
Matrix coefficients : BT.709

Audio #1
ID : 2
Format : AC-3
Format/Info : Audio Coding 3
Mode extension : CM (complete main)
Format settings, Endianness : Big
Codec ID : A_AC3
Duration : 1h 10mn
Bit rate mode : Constant
Bit rate : 384 Kbps
Channel(s) : 6 channels
Channel positions : Front: L C R, Side: L R, LFE
Sampling rate : 48.0 KHz
Frame rate : 31.250 fps (1536 spf)
Compression mode : Lossy
Stream size : 193 MiB (6%)
Title : OmskBird 5.1
Language : Russian
Default : Yes
Forced : No

Audio #2
ID : 3
Format : AC-3
Format/Info : Audio Coding 3
Mode extension : CM (complete main)
Format settings, Endianness : Big
Codec ID : A_AC3
Duration : 1h 10mn
Bit rate mode : Constant
Bit rate : 384 Kbps
Channel(s) : 6 channels
Channel positions : Front: L C R, Side: L R, LFE
Sampling rate : 48.0 KHz
Frame rate : 31.250 fps (1536 spf)
Compression mode : Lossy
Stream size : 193 MiB (6%)
Title : eng
Language : English
Default : No
Forced : No

Text
ID : 4
Format : UTF-8
Codec ID : S_TEXT/UTF8
Codec ID/Info : UTF-8 Plain Text
Duration : 1h 9mn
Bit rate : 41 bps
Count of elements : 833
Stream size : 21.4 KiB (0%)
Title : CC
Language : English
Default : No
Forced : No
Внимание! Раздача ведётся путём добавления новых серий; при каждом добавлении создётся новый торрент. Чтобы начать докачку новой серии, пользователям необходимо сделать следующее:
Остановить скачивание.
Удалить старый торрент у себя из клиента (старые серии удалять не надо).
Скачать новый торрент и запустить его у себя в клиенте вместо старого, при этом указать клиенту путь в старую папку куда и должно происходить скачивание новых серий.
Ваш клиент при этом должен произвести хеширование (проверку) старой папки (если не производит сам - помогите ему сделать это), и будет докачивать только те серии которых у вас ещё нет. Старые серии при этом не удаляются, а продолжают раздаваться!
Eсли вы уже удалили старые серии, то предотвратить повторную закачку старых серий можно, отжав галочку в соответсвующих местах при запуске нового торрента. По возможности, желательно не удалять старые серии как можно дольше чтобы релизёр не столько продолжал раздавать старые серии, а смог сконцентрироваться на новых.


Трекер:  [ 17-Мар-2017 15:21 ]

  

Скачать .torrent

Размер .torrent файла 35 KB


Размер: 13.64 GB
Хэш (hash) релиза: 5938dded201fafd41c32e0e5f2b2b4a3b0854f2b
Подписка на обновления:

bot

Раздача обновлена!
Перекачайте торрент-файл.

bot

Раздача обновлена!
Перекачайте торрент-файл.

bot

Раздача обновлена!
Перекачайте торрент-файл.

bot

Раздача обновлена!
Перекачайте торрент-файл.

bot

Раздача обновлена!
Перекачайте торрент-файл.

Хотите добавить комментарий к записи скачать торрент Легион Legion

!Обратная связь