Скачать через торрент Карьер Куорри Наёмник Куорри Фильм бесплатно в хорошем качестве torrent

Скачивайте на UnionPeer.org фильмы через торрент без регистрации. Новинки кино в хорошем качестве через торрент. На UnionPeer.org можно скачать через торрент фильмы 2014 и 2015 годов. Самые новые фильмы.

Скачать торрент Карьер Куорри Наёмник Куорри бесплатно через .torrent фильм мультфильм сериал

Если у вас наблюдаются проблемы со скриншотами, переходом по ссылками, скачиванием торрентов - проблемы в блокировщике рекламы AdBlock. #хорошегоДня!


Статистика раздачи
Размер:  36.23 GB   |    Зарегистрирован:  7 месяцев   |    .torrent скачан:  24 раза   |   
Раздают:  1  
   
Загрузка...
 
Автор Сообщение

Galfimbul

avatar Galfimbul


Карьер Куорри / Наёмник Куорри / Quarry

Год выпуска: 2016
Страна: США
Жанр: Криминальная драма
Продолжительность: ~55 - 82 мин.

Перевод: Субтитры (пер. Амедиа)

Режиссёр: Грег Яйтанс / Greg Yaitanes
В ролях: Логан Маршалл-Грин, Джоди Бальфур, Питер Муллан, Никки Амука-Бёрд, Дэймон Херриман, Эдуардо Баллерини, Хлоя Элиз, Джош Рэндэлл, Мустафа Жакир, Джошуа Дж. Уильямс и др.

Описание: 1972 год. Снайпер Куорри возвращается из третьей военной командировки во Вьетнам и обнаруживает, что люди не видят в нём героя, скорее демонизируя образ американского солдата, а старые друзья так и вовсе от него отвернулись. От разочарования он подаётся в разветвлённую сеть наёмных убийц и коррупционеров, действующую на всей протяжённости Миссисипи.



<a href="tracker.php?f=2366&nm=quarry" class="postLink">Предыдущие и альтернативные раздачи</a>

Качество: BDRip 1080p
Контейнер: MKV
Видео: AVC, 1920x1080 (16:9), 23,976 fps, ~10 Мбит/сек
Аудио: [Английский] DTS, 48 kHz, 6 ch, 1536 kbps
Субтитры: Русские (srt, Амедиа), Английские (srt)
Реклама: Отсутствует
01. You Don't Miss Your Water
02. Figure Four
03. A Mouthful of Splinters
04. Seldom Realized
05. Coffee Blues
06. His Deeds Were Scattered
07. Carnival of Souls
08. Nuoc Chay Da Mon
General
Unique ID : 200086532901926706915092267061777054222 (0x968743B77B13426C8F89EAC8875CBA0E)
Complete name : F:\Quarry_Season_01_BDRip_1080p\quarry.s01e01.1080p.bluray.x264-rovers.mkv
Format : Matroska
Format version : Version 4 / Version 2
File size : 5.46 GiB
Duration : 1 h 15 min
Overall bit rate : 10.3 Mb/s
Encoded date : UTC 2017-02-17 05:13:35
Writing application : mkvmerge v9.8.0 ('Kuglblids') 64bit
Writing library : libebml v1.3.4 + libmatroska v1.4.5

Video
ID : 1
Format : AVC
Format/Info : Advanced Video Codec
Format profile : High@L4.1
Format settings, CABAC : Yes
Format settings, ReFrames : 4 frames
Codec ID : V_MPEG4/ISO/AVC
Duration : 1 h 15 min
Bit rate : 8 792 kb/s
Width : 1 920 pixels
Height : 1 080 pixels
Display aspect ratio : 16:9
Frame rate mode : Constant
Frame rate : 23.976 FPS
Color space : YUV
Chroma subsampling : 4:2:0
Bit depth : 8 bits
Scan type : Progressive
Bits/(Pixel*Frame) : 0.177
Stream size : 4.66 GiB (85%)
Writing library : x264 core 148 r2744 b97ae06
Encoding settings : cabac=1 / ref=4 / deblock=1:0:0 / analyse=0x3:0x133 / me=umh / subme=7 / psy=1 / psy_rd=1.00:0.00 / mixed_ref=1 / me_range=16 / chroma_me=1 / trellis=1 / 8x8dct=1 / cqm=0 / deadzone=21,11 / fast_pskip=0 / chroma_qp_offset=-2 / threads=34 / lookahead_threads=5 / sliced_threads=0 / nr=0 / decimate=1 / interlaced=0 / bluray_compat=0 / constrained_intra=0 / bframes=3 / b_pyramid=2 / b_adapt=1 / b_bias=0 / direct=1 / weightb=1 / open_gop=0 / weightp=2 / keyint=250 / keyint_min=23 / scenecut=40 / intra_refresh=0 / rc_lookahead=40 / rc=2pass / mbtree=1 / bitrate=8792 / ratetol=1.0 / qcomp=0.60 / qpmin=0 / qpmax=69 / qpstep=4 / cplxblur=20.0 / qblur=0.5 / ip_ratio=1.40 / aq=1:1.00
Language : English
Default : Yes
Forced : No

Audio
ID : 2
Format : DTS
Format/Info : Digital Theater Systems
Mode : 16
Format settings, Endianness : Big
Codec ID : A_DTS
Duration : 1 h 15 min
Bit rate mode : Constant
Bit rate : 1 509 kb/s
Channel(s) : 6 channels
Channel positions : Front: L C R, Side: L R, LFE
Sampling rate : 48.0 kHz
Frame rate : 93.750 FPS (512 spf)
Bit depth : 24 bits
Compression mode : Lossy
Stream size : 820 MiB (15%)
Language : English
Default : Yes
Forced : No

Text #1
ID : 3
Format : UTF-8
Codec ID : S_TEXT/UTF8
Codec ID/Info : UTF-8 Plain Text
Duration : 1 h 8 min
Bit rate : 68 b/s
Count of elements : 744
Stream size : 34.1 KiB (0%)
Language : Russian
Default : No
Forced : No

Text #2
ID : 4
Format : UTF-8
Codec ID : S_TEXT/UTF8
Codec ID/Info : UTF-8 Plain Text
Duration : 1 h 8 min
Bit rate : 51 b/s
Count of elements : 787
Stream size : 25.9 KiB (0%)
Language : English
Default : No
Forced : No

Menu
00:00:00.000 : en:00:00:00.000
00:03:37.926 : en:00:03:37.926
00:13:08.079 : en:00:13:08.079
00:24:07.488 : en:00:24:07.488
00:29:59.381 : en:00:29:59.381
00:36:37.946 : en:00:36:37.946
00:44:43.264 : en:00:44:43.264
00:51:06.939 : en:00:51:06.939
01:02:12.270 : en:01:02:12.270
01:14:13.616 : en:01:14:13.616
Субтитры отдельно: https://yadi.sk/d/teAT15H-3EByvB
<div class="clear" style="height: 8px;"></div>

Трекер:  [ 17-Фев-2017 12:30 ]

  

Скачать .torrent

Размер .torrent файла 91 KB


Размер: 36.23 GB
Хэш (hash) релиза: a6d78f2c8c53a3de492ec11a3ef262b15cdc4857
Подписка на обновления:

Еще никто не оставлял запись к записи скачать торрент Карьер Куорри Наёмник Куорри . Будь первым!

!Обратная связь