Скачать через торрент Синдикат Серии: 1-12 из 12 Фильм бесплатно в хорошем качестве torrent

Скачивайте на UnionPeer.org фильмы через торрент без регистрации. Новинки кино в хорошем качестве через торрент. На UnionPeer.org можно скачать через торрент фильмы 2014 и 2015 годов. Самые новые фильмы.

Скачать торрент Синдикат Серии: 1-12 из 12 бесплатно через .torrent фильм мультфильм сериал

Статистика раздачи
Размер:  6.44 GB   |    Зарегистрирован:  1 месяц 10 дней   |    .torrent скачан:  77 раз   |   
Раздают:  1  
   
 
Автор Сообщение

Galfimbul

avatar Galfimbul


Синдикат

Год выпуска: 2006
Производство: АСДС по заказу НТВ
Жанр: Детектив
Продолжительность: 12 x 00:45:00
Субтитры: Нет

Режиссёр: Алексей Лебедев

В ролях: Илья Шакунов, Игорь Лифанов, Евгения Игумнова, Аркадий Волгин, Владимир Маслаков, Сергей Кудрявцев, Владимир Кутейников, Юрий Орлов (II), Дмитрий Поднозов, Александр Маслов, Андрей Лёвин, Андрей Зибров, Анатолий Рудаков, Василий Реутов, Дмитрий Сутырин, Игорь Головин, Ольга Белявская, Дмитрий Рыбаков, Татьяна Рассказова, Кирилл Датешидзе, Дмитрий Лысенков, Сергей Андрейчук, Татьяна Колганова, Юрий Оськин, Виктор Тереля, Анатолий Артёмов, Олег Пальмов, Сергей Русскин, Ольга Остроумова-Гутшмидт, Евгений Меркурьев, Леонид Неведомский, Виталий Гордиенко, Валерий Дегтярь, Виталий Куликов

Описание: Синдикат - это корпорация под названием «Ортус», которая объединяет фармацевтику, строительство и транспорт, медиа- и шоу- бизнес. Однако за фасадом ее официальной экономической деятельности скрывается структура, призванная монополизировать производство дешевых синтетических наркотиков и рынок их распространения в России. Когда правоохранительные органы сталкиваются с деятельностью подпольного синдиката-спрута, возникает идея внедрения в его ряды двух агентов. У каждого из них своя миссия. Они исчезают для внешнего мира: меняют имена, стирают свои биографии, отрекаются от людей, которыми дорожили. Агенты не знают о существовании друг друга, связь с Центром и внешним миром осуществляется через Куратора.

Реклама: Нет

Все раздачи сериала: <a href="tracker.php?f=9&nm=%D1%E8%ED%E4%E8%EA%E0%F2" class="postLink">Синдикат</a>
Сэмпл: http://multi-up.com/1140961

Качество: IPTVRip
Формат: AVI
Видео кодек: XviD
Аудио кодек: AC3
Видео: 688x400 (1.72:1), 25 fps, XviD build 73 ~1580 kbps avg, 0.23 bit/pixel
Аудио: 48 kHz, AC3 Dolby Digital, 2/0 (L,R) ch, ~192 kbps
General
Complete name : \Синдикат\Синдикат (01 сер.).avi
Format : AVI
Format/Info : Audio Video Interleave
File size : 550 MiB
Duration : 43 min
Overall bit rate : 1 783 kb/s
Writing application : VirtualDubMod 1.5.10.3 | www.virtualdub-fr.org || (build 2550/release)
Writing library : VirtualDubMod build 2550/release

Video
ID : 0
Format : MPEG-4 Visual
Format profile : Advanced Simple@L5
Format settings, BVOP : 1
Format settings, QPel : No
Format settings, GMC : No warppoints
Format settings, Matrix : Default (H.263)
Codec ID : XVID
Codec ID/Hint : XviD
Duration : 43 min
Bit rate : 1 581 kb/s
Width : 688 pixels
Height : 400 pixels
Display aspect ratio : 1.720
Frame rate : 25.000 FPS
Color space : YUV
Chroma subsampling : 4:2:0
Bit depth : 8 bits
Scan type : Progressive
Compression mode : Lossy
Bits/(Pixel*Frame) : 0.230
Stream size : 488 MiB (89%)
Writing library : XviD 73

Audio
ID : 1
Format : AC-3
Format/Info : Audio Coding 3
Mode extension : CM (complete main)
Format settings, Endianness : Big
Codec ID : 2000
Duration : 43 min
Bit rate mode : Constant
Bit rate : 192 kb/s
Channel(s) : 2 channels
Channel positions : Front: L R
Sampling rate : 48.0 kHz
Frame rate : 31.250 FPS (1536 spf)
Compression mode : Lossy
Stream size : 59.2 MiB (11%)
Alignment : Split accross interleaves
Interleave, duration : 40 ms (1.00 video frame)
Interleave, preload duratio : 500 ms
<div class="clear" style="height: 8px;"></div>

Трекер:  [ 17-Фев-2017 11:00 ]

  

Скачать .torrent

Размер .torrent файла 33 KB


Размер: 6.44 GB
Хэш (hash) релиза: 19e38c13e060e72c7119ce762625e2f927520e8f
Подписка на обновления:

Еще никто не оставлял запись к записи скачать торрент Синдикат Серии: 1-12 из 12 . Будь первым!

!Обратная связь