Скачать порно через торрент Fade In В сети UnionPeer.org бесплатно онлайн HD качество

Скачать новое порно 2015, 2014 новинки через торрент UnionPeer.org

Порно торрент бесплатно ЮнионПир.орг

Если у вас наблюдаются проблемы со скриншотами, переходом по ссылками, скачиванием торрентов - проблемы в блокировщике рекламы AdBlock. #хорошегоДня!


Статистика раздачи
Размер:  409 MB   |    Зарегистрирован:  9 месяцев   |    .torrent скачан:  37 раз   |   
Раздают:  1  
   
Загрузка...
 
Автор Сообщение

Galfimbul

avatar Galfimbul



Fade In
В сети

Год производства:
1984 г.
Страна:
US
Жанр:
Oral,Anal Sex
Продолжительность:
01:07:57
Студия:
Marathon Films
Режиссер:
Bill E. London
В ролях:
Chris Allen,David Ashfield,Dwan,Gino DelMar,Jon King,Michael Christopher,Scott Clark,Shawn Easton
Описание:
A call to a phone sex line has the caller told to let his imagination run and the story gets very fanciful. The story is continued in Fade Out with much of the same cast.
Качество видео:
VHSRip
Формат видео:
WMV
Видео:
WMV3,640 pixels x 480 pixels,29.970 FPS,673 kb/s
Аудио:
WMA,48.0 kHz,Lossy,160 kb/s
Format : Windows Media
File size : 409 MiB
Duration : 1 h 7 min
Overall bit rate mode : Variable
Overall bit rate : 843 kb/s
Maximum Overall bit rate : 1 569 kb/s
Encoded date : UTC 2008-01-12 16:51:32.281

Video
ID : 2
Format : VC-1
Format profile : MP@ML
Codec ID : WMV3
Codec ID/Info : Windows Media Video 9
Codec ID/Hint : WMV3
Description of the codec : Windows Media Video 9
Duration : 1 h 7 min
Bit rate mode : Variable
Bit rate : 673 kb/s
Width : 640 pixels
Height : 480 pixels
Display aspect ratio : 4:3
Frame rate : 29.970 (29970/1000) FPS
Color space : YUV
Chroma subsampling : 4:2:0
Bit depth : 8 bits
Scan type : Progressive
Compression mode : Lossy
Bits/(Pixel*Frame) : 0.073
Stream size : 327 MiB (80%)
Language : English (United States)

Audio
ID : 1
Format : WMA
Format version : Version 2
Codec ID : 161
Codec ID/Info : Windows Media Audio
Description of the codec : Windows Media Audio 9.2 - 160 kbps, 48 kHz, stereo (A/V) 1-pass CBR
Duration : 1 h 7 min
Bit rate mode : Constant
Bit rate : 160 kb/s
Channel(s) : 2 channels
Sampling rate : 48.0 kHz
Bit depth : 16 bits
Stream size : 77.8 MiB (19%)
Language : English (United States)

[/spoier]


Трекер:  [ 16-Фев-2017 18:30 ]

  

Скачать .torrent

Размер .torrent файла 16 KB


Размер: 409 MB
Хэш (hash) релиза: 5c7fe250851f4fd358d948e9f6788da95aa51014

Еще никто не оставлял запись к записи скачать торрент Fade In В сети . Будь первым!

!Обратная связь