Скачать через торрент Пингвиний барабан Mawaru Penguin Drum бесплатно Аниме Все серии на русском torrent

Если у вас наблюдаются проблемы со скриншотами, переходом по ссылками, скачиванием торрентов - проблемы в блокировщике рекламы AdBlock. #хорошегоДня!


Статистика раздачи
Размер:  1 GB   |    Зарегистрирован:  6 лет 1 месяц   |    .torrent скачан:  35 раз   |   
Раздают:  1  
   
Загрузка...
 
Автор Сообщение

Galfimbul

avatar Galfimbul


Пингвиний барабан | Mawaru Penguin Drum | 輪るピングドラム



Выпуск: c 08.07.2011
Страна:
Жанр: приключения
Тип: ТВ (24 эп.)
Продолжительность: 25 мин.

Режиссер: Икухара Кунихико / Ikuhara Kunihiko / 幾原邦彦
Студия:

Перевод:
  • Любительский (двухголосый, закадровый) [Онитян & NikaLenina (anidub)] - вн. дорожка
Субтитры:
  • русские (внешние, ass) [Advantage] (1-3 серии)
  • русские (внешние, ass) [Dreamers Team & Hiouxsov] (1-2 серии)

Описание: В старом доме живут трое - два брата-близнеца и их младшая сестра Химари, страдающая тяжелой неизлечимой болезнью мозга. И вот, во время прогулки в зоопарке, неизбежное наступает, у девочки начинается приступ, и она умирает, братья безутешны. Однако с этого всё только начинается.
Немного погодя, Химари оживает и изменившимся голосом заявляет братьям, что она (незнакомка) пришла из перекрёстков судьбы и решила продлить жизнь девочки, однако всё имеет свою цену, и братьям придётся за это заплатить. Ничего не пояснив, она снова исчезает, возвращая личность Химари, а на следующий день в их доме поселяются трое невидимых для всех (кроме героев) пингвинов и начинают активно принимать участие в жизнь троицы. Всё происходящее дополнительно осложняется тем, что один из братьев, судя по всему, любит сестру вовсе не "братской" любовью.
Однако чем же именно придётся пожертвовать братьям за спасение сестры, причем тут эти странные пингвины и кто такая "незнакомка из перекрёстков судьбы"?!

Качество: HDTVRip, 720p [Leopard-Raws]
Хардсаб: Отсутствует
Формат: MPEG-4
Видео: AVC, 1280х720 (16:9), 23.976 fps, ~1600 kbps
Аудио:
  • - AAC, 48,0 KHz, 2 channels (Front: L R), ~160 kbps
  • - AAC, 48,0 KHz, 2 channels (Front: L R), ~192 kbps

Субтитры: Advantage
Перевод: Reaper
Редактура: Blazing Wizard
Оформитель: nismo
Озвучивание: Онитян & NikaLenina
Общее
Полное имя : D:\Онгоинги\Mawaru Penguindrum\RUS Sound [Онитян & NikaLenina]\[Leopard-Raws] Mawaru Penguin Drum - 01 RAW (TBS 1280x720 x264 AAC).mka
Формат : MPEG-4
Профиль формата : Apple audio with iTunes info
Идентификатор кодека : M4A
Размер файла : 28,8 Мбайт
Продолжительность : 23 м.
Общий поток : 168 Кбит/сек
Дата кодирования : UTC 2011-07-09 18:19:15
Дата пометки : UTC 2011-07-09 18:19:15
Программа кодирования : Lavf51.12.1

Аудио
Идентификатор : 1
Формат : AAC
Формат/Информация : Advanced Audio Codec
Профиль формата : LC
Идентификатор кодека : 40
Продолжительность : 23 м.
Вид битрейта : Переменный
Битрейт : 165 Кбит/сек
Каналы : 2 канала
Расположение каналов : Front: L R
Частота : 48,0 КГц
Метод сжатия : С потерями
Размер потока : 28,3 Мбайт (98%)
Дата кодирования : UTC 2011-07-09 18:19:15
Дата пометки : UTC 2011-07-09 18:19:15

Общее
Полное имя : D:\Онгоинги\Mawaru Penguindrum\RUS Subs [Advantage]\[Leopard-Raws] Mawaru Penguin Drum - 01 RAW (TBS 1280x720 x264 AAC).ass
Размер файла : 46,3 Кбайт

Общее
Полное имя : D:\Онгоинги\Mawaru Penguindrum\[Leopard-Raws] Mawaru Penguin Drum - 01 RAW (TBS 1280x720 x264 AAC).mp4
Формат : MPEG-4
Профиль формата : Base Media
Идентификатор кодека : isom
Размер файла : 301 Мбайт
Продолжительность : 23 м.
Общий поток : 1752 Кбит/сек
Дата кодирования : UTC 2011-07-08 04:54:19
Дата пометки : UTC 2011-07-08 04:54:19

Видео
Идентификатор : 1
Формат : AVC
Формат/Информация : Advanced Video Codec
Профиль формата : <a href="mailto:High@L4.0" class="postLink">High@L4.0</a>
Параметр CABAC формата : Да
Параметр ReFrames формата : 3 кадра
Идентификатор кодека : avc1
Идентификатор кодека/Информация : Advanced Video Coding
Продолжительность : 23 м.
Вид битрейта : Переменный
Битрейт : 1588 Кбит/сек
Максимальный битрейт : 12,4 Мбит/сек
Ширина : 1280 пикс.
Высота : 720 пикс.
Соотношение сторон : 16:9
Режим частоты кадров : Переменный
Частота кадров : 23,976 кадр/сек
Минимальная частота кадров : 23,976 кадр/сек
Максимальная частота кадров : 47,952 кадр/сек
Цветовое пространство : YUV
Подвыборка цветности : 4:2:0
Битовая глубина : 8 бит
Тип развёртки : Прогрессивная
Бит/(Пиксели*Кадры) : 0.072
Размер потока : 273 Мбайт (91%)
Библиотека кодирования : x264 core 75 r1246 5b3c89c
Настройки программы : cabac=1 / ref=3 / deblock=1:-2:-2 / analyse=0x3:0x133 / me=umh / subme=9 / psy=1 / psy_rd=0.5:0.0 / mixed_ref=1 / me_range=32 / chroma_me=1 / trellis=2 / 8x8dct=1 / cqm=0 / deadzone=21,11 / chroma_qp_offset=-2 / threads=6 / nr=0 / decimate=1 / mbaff=0 / bframes=2 / b_pyramid=0 / b_adapt=2 / b_bias=0 / direct=3 / wpredb=1 / keyint=240 / keyint_min=1 / scenecut=40 / rc_lookahead=36 / rc=crf / mbtree=1 / crf=19.0 / qcomp=0.60 / qpmin=10 / qpmax=51 / qpstep=8 / ip_ratio=1.40 / aq=1:1.00
Дата кодирования : UTC 2011-07-08 04:53:59
Дата пометки : UTC 2011-07-08 04:54:27

Аудио
Идентификатор : 2
Формат : AAC
Формат/Информация : Advanced Audio Codec
Профиль формата : LC
Идентификатор кодека : 40
Продолжительность : 23 м.
Вид битрейта : Переменный
Битрейт : 159 Кбит/сек
Максимальный битрейт : 210 Кбит/сек
Каналы : 2 канала
Расположение каналов : Front: L R
Частота : 48,0 КГц
Метод сжатия : С потерями
Размер потока : 27,4 Мбайт (9%)
Язык : Japanese
Дата кодирования : UTC 2011-07-08 04:54:10
Дата пометки : UTC 2011-07-08 04:54:27

Внимание! Раздача ведётся путём добавления новых серий!


Трекер:  [ 25-Июл-2011 10:44 ]

  

Скачать .torrent

Размер .torrent файла 12 KB


Размер: 1 GB
Хэш (hash) релиза: fd9f45a227573a2e30e051b1e083f634bb46cc66
Подписка на обновления:

Торренты, похожие на Пингвиний барабан Mawaru Penguin Drum скачать торрент

Форум Название Автор Размер S L Добавлен
Аниме | HD Rips ·· Пингвиний барабан / Mawaru Penguin Drum (Икухара Кунихико) [TV] [24 из 24] [RUS(int),JAP+SUB] [без хардсаба] [2011 г., приключения, HDTVRip] [720p] L 74253303076.92 GB 0 0 1329981480

10:18

23-Фев-12

Аниме | HD Rips ·· Пингвиний барабан / Mawaru Penguindrum / Mawaru Penguin Drum (Икухара Кунихико) [TV] [24 из 24] [без хардсаба] [RUS(ext), JAP+SUB] [2011, комедия, повседневность, драма, BDRemux] [1080p] Galfimbul 123297082399114.83 GB 2 0 1500201065

13:31

16-Июл-17

Аниме | HD Rips ·· Крутится-вертится Пингвиний Барабан (ТВ) / Mawaru Penguindrum / Mawaru Penguin Drum [TV] [24 из 24] [Без хардсаба] [RUS(ext), JAP, SUB] [2011, комедия, повседневность, драма, BDRip] [1080p] Galfimbul 4526534306742.16 GB 0 0 1487185723

22:08

15-Фев-17

Аниме | HD Rips ·· Пингвиний барабан / Mawaru Penguindrum / Mawaru Penguin Drum (Икухара Кунихико) [TV] [24 из 24] [без хардсаба] [RUS(ext), JAP+SUB] [2011 г., комедия, повседневность, драма, BDRip] [720p] Galfimbul 1675186918315.6 GB 0 0 1384376371

23:59

13-Ноя-13

Еще никто не оставлял запись к записи скачать торрент Пингвиний барабан Mawaru Penguin Drum . Будь первым!

!Обратная связь