Скачать порно через торрент Dream Doll Куклы мечты UnionPeer.org бесплатно онлайн HD качество

Скачать новое порно 2015, 2014 новинки через торрент UnionPeer.org

Порно торрент бесплатно ЮнионПир.орг

Если у вас наблюдаются проблемы со скриншотами, переходом по ссылками, скачиванием торрентов - проблемы в блокировщике рекламы AdBlock. #хорошегоДня!


Статистика раздачи
Размер:  623 MB   |    Зарегистрирован:  6 месяцев   |    .torrent скачан:  50 раз   |   
Раздают:  1  
   
Загрузка...
 
Автор Сообщение

Galfimbul

avatar Galfimbul



Dream Doll
Куклы мечты

Год производства:
1989 г.
Страна:
US
Жанр:
Oral,Anal Sex,Bareback
Продолжительность:
01:13:54
Студия:
By Attraction
Режиссер:
Bill E. London
В ролях:
Brad Carlton,Gino Colber,tKevin Young,Randy Roberts,Rod Garreto,Sean Fox
Описание:
Kevin Young is a homesick lad whose thoughts about his hometown love (Colbert) lead to a masturbating frenzy.
Качество видео:
VHSRip
Формат видео:
WMV
Видео:
WMV3,640 pixels x 480 pixels,29.970FPS,1 000 kb/s
Аудио:
WMA,44.1 kHz,Lossy,64.0 kb/s
Format : Windows Media
File size : 623 MiB
Duration : 1 h 13 min
Overall bit rate mode : Variable
Overall bit rate : 1 179 kb/s
Maximum Overall bit rate : 1 843 kb/s
Encoded date : UTC 2003-03-06 17:42:38.609

Video
ID : 2
Format : VC-1
Format profile : Main
Codec ID : WMV3
Codec ID/Info : Windows Media Video 9
Codec ID/Hint : WMV3
Description of the codec : Windows Media Video 9
Duration : 1 h 13 min
Bit rate mode : Variable
Bit rate : 1 000 kb/s
Width : 640 pixels
Height : 480 pixels
Display aspect ratio : 4:3
Frame rate : 29.970 (29970/1000) FPS
Color space : YUV
Chroma subsampling : 4:2:0
Bit depth : 8 bits
Scan type : Progressive
Compression mode : Lossy
Bits/(Pixel*Frame) : 0.109
Stream size : 529 MiB (85%)
Language : English (United States)

Audio
ID : 1
Format : WMA
Format version : Version 2
Codec ID : 161
Codec ID/Info : Windows Media Audio
Description of the codec : Windows Media Audio 9 - 64 kbps, 44 kHz, stereo (A/V) 1-pass CBR
Duration : 1 h 13 min
Bit rate mode : Constant
Bit rate : 64.0 kb/s
Channel(s) : 2 channels
Sampling rate : 44.1 kHz
Bit depth : 16 bits
Stream size : 33.9 MiB (5%)
Language : English (United States)

[/spoier]


Трекер:  [ 16-Фев-2017 10:00 ]

  

Скачать .torrent

Размер .torrent файла 12 KB


Размер: 623 MB
Хэш (hash) релиза: 721d1a8328956e1b1a755dadf394c51a446c2673

Торренты, похожие на Dream Doll Куклы мечты скачать торрент

Форум Название Автор Размер S L Добавлен
Журналы и фотографии (порно) ·· [ART] BABEWATCH:КУКЛЫ МЕЧТЫ. / BABEWATCH: DREAM DOLLS. (Martin Wright / Studio Peach) [1999 г., Erotic, DVDRip] Galfimbul 800512644763 MB 0 0 1323152323

09:18

6-Дек-11

Еще никто не оставлял запись к записи скачать торрент Dream Doll Куклы мечты . Будь первым!

!Обратная связь