Скачать через торрент музыку Ди-Джей Scratch бесплатно без регистрации torrent

Если у вас наблюдаются проблемы со скриншотами, переходом по ссылками, скачиванием торрентов - проблемы в блокировщике рекламы AdBlock. #хорошегоДня!


Статистика раздачи
Размер:  302 MB   |    Зарегистрирован:  7 месяцев   |    .torrent скачан:  26 раз   |   
Раздают:  1  
   
Загрузка...
 
Автор Сообщение

Galfimbul

avatar Galfimbul


<span class="post-font-serif1">Ди-Джей / Scratch</span>

<span class="post-font-serif1">Название альбома: Scratch (Advance Promo)
Жанр: Soundtrack / Turntablism
Год выпуска диска: 2001
Страна-производитель диска: US
Издатель (лейбл): Transparent Music
Номер по каталогу: TMCD-500152
Аудиокодек: FLAC (*.flac)
Тип рипа: tracks+.cue
Битрейт аудио: lossless
Продолжительность: 00:45:38
Источник: 1994hiphop
Наличие сканов в содержимом раздачи: нет
Треклист:</span>
<span class="post-font-mono2">01. Grand Wizard Theodore – Prologue
02. Mix Master Mike, DJ Disk – (Live)
03. X-Ecutioners Feat. DJ Premier – Primo’s X-Ecution
04. Mix Master Mike, DJ Disk – (Live)
05. Rob Swift – Re-Animator
06. Mix Master Mike – Interlude
07. Herbie Hancock Feat. Mix Master Mike, Grand Mixer DXT, Rob Swift, Qbert, Babu, Faust, and Shortee – Rockit 2.002
08. Cut Chemist – Interlude
09. Cat Five vs. Snake Eyez – Turntable Transformer
10. Cut Chemist – Interlude
11. DJ Krush – (Live)
12. Grand Mixer DXT – Crazy 2 Crazy
13. DJ Shadow – Interlude
14. Invisibl Skratch Piklz – Invasion of the Octopus People
15. Jazzy Jay, Afrika Bambaataa – Interlude
16. Boogie Boy, Kid Delight, Afrika Bambaataa – All 4 One
17. Afrika Bambaataa – Interlude
18. DJ Disk – Skin Cracked Camels
19. (Unknown) – Interlude
20. Grand Mixer DXT – Cut Transmitter
21. Eddie Def – Universal Noize Maker
22. Qbert, Mix Master Mike – Interlude
23. Rob Swift – My Style</span>
X Lossless Decoder version 20120609 (141.0)

XLD extraction logfile from 2012-09-06 17:22:04 -0400

Various / Scratch - Original Motion Picture Soundtrack (Advance Promo)

Used drive : SONY DVD RW DRU-820A (revision 1.0b)

Ripper mode : XLD Secure RipperDisable audio cache : OK for the drive with a cache less than 1375KiBMake use of C2 pointers : NORead offset correction : 102Max retry count : 20Gap status : Analyzed, Appended (except HTOA)

TOC of the extracted CD Track | Start | Length | Start sector | End sector --------------------------------------------------------- 1 | 00:00:00 | 00:31:47 | 0 | 2371 2 | 00:31:47 | 00:44:45 | 2372 | 5716 3 | 01:16:17 | 03:18:35 | 5717 | 20601 4 | 04:34:52 | 01:04:51 | 20602 | 25452 5 | 05:39:28 | 01:25:70 | 25453 | 31897 6 | 07:05:23 | 00:22:53 | 31898 | 33600 7 | 07:28:01 | 08:28:61 | 33601 | 71761 8 | 15:56:62 | 00:19:32 | 71762 | 73218 9 | 16:16:19 | 03:18:43 | 73219 | 88111 10 | 19:34:62 | 00:15:27 | 88112 | 89263 11 | 19:50:14 | 00:56:69 | 89264 | 93532 12 | 20:47:08 | 04:18:72 | 93533 | 112954 13 | 25:06:05 | 00:18:62 | 112955 | 114366 14 | 25:24:67 | 03:11:22 | 114367 | 128713 15 | 28:36:14 | 00:27:29 | 128714 | 130767 16 | 29:03:43 | 01:33:42 | 130768 | 137784 17 | 30:37:10 | 00:19:02 | 137785 | 139211 18 | 30:56:12 | 05:06:28 | 139212 | 162189 19 | 36:02:40 | 00:20:07 | 162190 | 163696 20 | 36:22:47 | 03:32:50 | 163697 | 179646 21 | 39:55:22 | 02:33:29 | 179647 | 191150 22 | 42:28:51 | 00:20:33 | 191151 | 192683 23 | 42:49:09 | 02:49:24 | 192684 | 205382

AccurateRip Summary (DiscID: 002487e6-026a2902-540ab217) Track 01 : NG (total 4 submissions) Track 02 : NG (total 4 submissions) Track 03 : NG (total 4 submissions) Track 04 : NG (total 4 submissions) Track 05 : NG (total 4 submissions) Track 06 : NG (total 4 submissions) Track 07 : NG (total 4 submissions) Track 08 : NG (total 4 submissions) Track 09 : NG (total 4 submissions) Track 10 : NG (total 4 submissions) Track 11 : NG (total 4 submissions) Track 12 : NG (total 3 submissions) Track 13 : NG (total 3 submissions) Track 14 : NG (total 3 submissions) Track 15 : NG (total 3 submissions) Track 16 : NG (total 3 submissions) Track 17 : NG (total 3 submissions) Track 18 : NG (total 3 submissions) Track 19 : NG (total 3 submissions) Track 20 : NG (total 3 submissions) Track 21 : NG (total 3 submissions) Track 22 : NG (total 3 submissions) Track 23 : NG (total 3 submissions) ->0 track accurately ripped, 23 tracks not

All Tracks Album gain : -8.91 dB Peak : 0.993378 Statistics Read error : 0 Jitter error (maybe fixed) : 0 Retry sector count : 0 Damaged sector count : 0

Track 01 Filename : /Volumes/int01b/Music/xldCONVERTED/2001 - Scratch - Original Motion Picture Soundtrack (Advance Promo) [FLAC] /01 Prologue.flac Pre-gap length : 00:02:00

Track gain : -4.67 dB Peak : 0.988678 CRC32 hash (test run) : 1AE5D44D CRC32 hash : 1AE5D44D CRC32 hash (skip zero) : 4D9140D9 AccurateRip v1 signature : 6B505734 AccurateRip v2 signature : A8B2DD5F ->Rip may not be accurate (total 4 submissions). Statistics Read error : 0 Jitter error (maybe fixed) : 0 Retry sector count : 0 Damaged sector count : 0

Track 02 Filename : /Volumes/int01b/Music/xldCONVERTED/2001 - Scratch - Original Motion Picture Soundtrack (Advance Promo) [FLAC] /02 (Live Excerpt).flac

Track gain : -9.20 dB Peak : 0.989716 CRC32 hash (test run) : 1B216852 CRC32 hash : 1B216852 CRC32 hash (skip zero) : B38D05C8 AccurateRip v1 signature : C5957F6C AccurateRip v2 signature : 862750B9 ->Rip may not be accurate (total 4 submissions). Statistics Read error : 0 Jitter error (maybe fixed) : 0 Retry sector count : 0 Damaged sector count : 0

Track 03 Filename : /Volumes/int01b/Music/xldCONVERTED/2001 - Scratch - Original Motion Picture Soundtrack (Advance Promo) [FLAC] /03 Primo's X-Ecution.flac

Track gain : -9.01 dB Peak : 0.990814 CRC32 hash (test run) : 3718BBA4 CRC32 hash : 3718BBA4 CRC32 hash (skip zero) : BAD9BD22 AccurateRip v1 signature : 47AF1C06 AccurateRip v2 signature : 9498120B ->Rip may not be accurate (total 4 submissions). Statistics Read error : 0 Jitter error (maybe fixed) : 0 Retry sector count : 0 Damaged sector count : 0

Track 04 Filename : /Volumes/int01b/Music/xldCONVERTED/2001 - Scratch - Original Motion Picture Soundtrack (Advance Promo) [FLAC] /04 (Live Excerpt).flac

Track gain : -7.04 dB Peak : 0.989380 CRC32 hash (test run) : 6D570B24 CRC32 hash : 6D570B24 CRC32 hash (skip zero) : 8F8DBB0A AccurateRip v1 signature : 41589A67 AccurateRip v2 signature : 7B7D54AC ->Rip may not be accurate (total 4 submissions). Statistics Read error : 0 Jitter error (maybe fixed) : 0 Retry sector count : 0 Damaged sector count : 0

Track 05 Filename : /Volumes/int01b/Music/xldCONVERTED/2001 - Scratch - Original Motion Picture Soundtrack (Advance Promo) [FLAC] /05 Re-Animator.flac

Track gain : -9.14 dB Peak : 0.990540 CRC32 hash (test run) : A66DCB65 CRC32 hash : A66DCB65 CRC32 hash (skip zero) : A221840A AccurateRip v1 signature : A61EB407 AccurateRip v2 signature : 0897CEC3 ->Rip may not be accurate (total 4 submissions). Statistics Read error : 0 Jitter error (maybe fixed) : 0 Retry sector count : 0 Damaged sector count : 0

Track 06 Filename : /Volumes/int01b/Music/xldCONVERTED/2001 - Scratch - Original Motion Picture Soundtrack (Advance Promo) [FLAC] /06 Interlude.flac

Track gain : -5.84 dB Peak : 0.988678 CRC32 hash (test run) : BF22E345 CRC32 hash : BF22E345 CRC32 hash (skip zero) : E4EC629E AccurateRip v1 signature : 750A00DE AccurateRip v2 signature : 9E56C69C ->Rip may not be accurate (total 4 submissions). Statistics Read error : 0 Jitter error (maybe fixed) : 0 Retry sector count : 0 Damaged sector count : 0

Track 07 Filename : /Volumes/int01b/Music/xldCONVERTED/2001 - Scratch - Original Motion Picture Soundtrack (Advance Promo) [FLAC] /07 Rockit 2.002.flac

Track gain : -8.80 dB Peak : 0.993378 CRC32 hash (test run) : 2DCCFE30 CRC32 hash : 2DCCFE30 CRC32 hash (skip zero) : EB83FE21 AccurateRip v1 signature : 9BB84EB5 AccurateRip v2 signature : 804D6350 ->Rip may not be accurate (total 4 submissions). Statistics Read error : 0 Jitter error (maybe fixed) : 0 Retry sector count : 0 Damaged sector count : 0

Track 08 Filename : /Volumes/int01b/Music/xldCONVERTED/2001 - Scratch - Original Motion Picture Soundtrack (Advance Promo) [FLAC] /08 Interlude.flac

Track gain : -6.29 dB Peak : 0.988770 CRC32 hash (test run) : 406A8B4B CRC32 hash : 406A8B4B CRC32 hash (skip zero) : 6472630E AccurateRip v1 signature : 0F113752 AccurateRip v2 signature : 9B9ECDD7 ->Rip may not be accurate (total 4 submissions). Statistics Read error : 0 Jitter error (maybe fixed) : 0 Retry sector count : 0 Damaged sector count : 0

Track 09 Filename : /Volumes/int01b/Music/xldCONVERTED/2001 - Scratch - Original Motion Picture Soundtrack (Advance Promo) [FLAC] /09 Turntable Transformer.flac

Track gain : -9.05 dB Peak : 0.990143 CRC32 hash (test run) : AC53228B CRC32 hash : AC53228B CRC32 hash (skip zero) : E3C6C479 AccurateRip v1 signature : 7C975005 AccurateRip v2 signature : 45266BC3 ->Rip may not be accurate (total 4 submissions). Statistics Read error : 0 Jitter error (maybe fixed) : 0 Retry sector count : 0 Damaged sector count : 0

Track 10 Filename : /Volumes/int01b/Music/xldCONVERTED/2001 - Scratch - Original Motion Picture Soundtrack (Advance Promo) [FLAC] /10 Interlude.flac

Track gain : -5.22 dB Peak : 0.988647 CRC32 hash (test run) : 5E694F60 CRC32 hash : 5E694F60 CRC32 hash (skip zero) : BFF30C71 AccurateRip v1 signature : 55D5BF2E AccurateRip v2 signature : CF85B5E7 ->Rip may not be accurate (total 4 submissions). Statistics Read error : 0 Jitter error (maybe fixed) : 0 Retry sector count : 0 Damaged sector count : 0

Track 11 Filename : /Volumes/int01b/Music/xldCONVERTED/2001 - Scratch - Original Motion Picture Soundtrack (Advance Promo) [FLAC] /11 (Live Excerpt).flac

Track gain : -9.34 dB Peak : 0.991394 CRC32 hash (test run) : 828FD568 CRC32 hash : 828FD568 CRC32 hash (skip zero) : 5BDA1D5E AccurateRip v1 signature : 33F41E0F AccurateRip v2 signature : 7B4304DA ->Rip may not be accurate (total 4 submissions). Statistics Read error : 0 Jitter error (maybe fixed) : 0 Retry sector count : 0 Damaged sector count : 0

Track 12 Filename : /Volumes/int01b/Music/xldCONVERTED/2001 - Scratch - Original Motion Picture Soundtrack (Advance Promo) [FLAC] /12 Crazy 2 Crazy.flac

Track gain : -10.18 dB Peak : 0.991119 CRC32 hash (test run) : 3B730015 CRC32 hash : 3B730015 CRC32 hash (skip zero) : 0E7B3704 AccurateRip v1 signature : C299DA2C AccurateRip v2 signature : 08A82634 ->Rip may not be accurate (total 3 submissions). Statistics Read error : 0 Jitter error (maybe fixed) : 0 Retry sector count : 0 Damaged sector count : 0

Track 13 Filename : /Volumes/int01b/Music/xldCONVERTED/2001 - Scratch - Original Motion Picture Soundtrack (Advance Promo) [FLAC] /13 Interlude.flac

Track gain : -4.39 dB Peak : 0.925354 CRC32 hash (test run) : 85FB925B CRC32 hash : 85FB925B CRC32 hash (skip zero) : FF5C4C7B AccurateRip v1 signature : 3CCA7CF0 AccurateRip v2 signature : DE4750D1 ->Rip may not be accurate (total 3 submissions). Statistics Read error : 0 Jitter error (maybe fixed) : 0 Retry sector count : 0 Damaged sector count : 0

Track 14 Filename : /Volumes/int01b/Music/xldCONVERTED/2001 - Scratch - Original Motion Picture Soundtrack (Advance Promo) [FLAC] /14 Invasion of the Octopus People.flac

Track gain : -9.17 dB Peak : 0.990875 CRC32 hash (test run) : B62C6550 CRC32 hash : B62C6550 CRC32 hash (skip zero) : 07BEAC07 AccurateRip v1 signature : 85796D15 AccurateRip v2 signature : 826CA59E ->Rip may not be accurate (total 3 submissions). Statistics Read error : 0 Jitter error (maybe fixed) : 0 Retry sector count : 0 Damaged sector count : 0

Track 15 Filename : /Volumes/int01b/Music/xldCONVERTED/2001 - Scratch - Original Motion Picture Soundtrack (Advance Promo) [FLAC] /15 Interlude.flac

Track gain : -6.07 dB Peak : 0.988647 CRC32 hash (test run) : 4B4BE2A5 CRC32 hash : 4B4BE2A5 CRC32 hash (skip zero) : 9D558E13 AccurateRip v1 signature : EE559194 AccurateRip v2 signature : B4ABBB74 ->Rip may not be accurate (total 3 submissions). Statistics Read error : 0 Jitter error (maybe fixed) : 0 Retry sector count : 0 Damaged sector count : 0

Track 16 Filename : /Volumes/int01b/Music/xldCONVERTED/2001 - Scratch - Original Motion Picture Soundtrack (Advance Promo) [FLAC] /16 All 4 One.flac

Track gain : -9.68 dB Peak : 0.990356 CRC32 hash (test run) : 7F8EB392 CRC32 hash : 7F8EB392 CRC32 hash (skip zero) : 4A46A3DB AccurateRip v1 signature : 2D22C375 AccurateRip v2 signature : E2C9BE80 ->Rip may not be accurate (total 3 submissions). Statistics Read error : 0 Jitter error (maybe fixed) : 0 Retry sector count : 0 Damaged sector count : 0

Track 17 Filename : /Volumes/int01b/Music/xldCONVERTED/2001 - Scratch - Original Motion Picture Soundtrack (Advance Promo) [FLAC] /17 Interlude.flac

Track gain : -5.42 dB Peak : 0.908295 CRC32 hash (test run) : E19BB4B2 CRC32 hash : E19BB4B2 CRC32 hash (skip zero) : B9B3A714 AccurateRip v1 signature : DB541647 AccurateRip v2 signature : 9AA36A42 ->Rip may not be accurate (total 3 submissions). Statistics Read error : 0 Jitter error (maybe fixed) : 0 Retry sector count : 0 Damaged sector count : 0

Track 18 Filename : /Volumes/int01b/Music/xldCONVERTED/2001 - Scratch - Original Motion Picture Soundtrack (Advance Promo) [FLAC] /18 Skin Cracked Canals.flac

Track gain : -9.02 dB Peak : 0.992920 CRC32 hash (test run) : 22D864A1 CRC32 hash : 22D864A1 CRC32 hash (skip zero) : E9437FD4 AccurateRip v1 signature : DCD3110D AccurateRip v2 signature : 9C2764D2 ->Rip may not be accurate (total 3 submissions). Statistics Read error : 0 Jitter error (maybe fixed) : 0 Retry sector count : 0 Damaged sector count : 0

Track 19 Filename : /Volumes/int01b/Music/xldCONVERTED/2001 - Scratch - Original Motion Picture Soundtrack (Advance Promo) [FLAC] /19 Interlude.flac

Track gain : -6.76 dB Peak : 0.989441 CRC32 hash (test run) : BB9EA998 CRC32 hash : BB9EA998 CRC32 hash (skip zero) : AD4BFCA7 AccurateRip v1 signature : 90208C62 AccurateRip v2 signature : ABFECADF ->Rip may not be accurate (total 3 submissions). Statistics Read error : 0 Jitter error (maybe fixed) : 0 Retry sector count : 0 Damaged sector count : 0

Track 20 Filename : /Volumes/int01b/Music/xldCONVERTED/2001 - Scratch - Original Motion Picture Soundtrack (Advance Promo) [FLAC] /20 Cut Transmitter.flac

Track gain : -8.79 dB Peak : 0.990631 CRC32 hash (test run) : 6C3ACF19 CRC32 hash : 6C3ACF19 CRC32 hash (skip zero) : 924DB617 AccurateRip v1 signature : 7E012EA5 AccurateRip v2 signature : D52D0779 ->Rip may not be accurate (total 3 submissions). Statistics Read error : 0 Jitter error (maybe fixed) : 0 Retry sector count : 0 Damaged sector count : 0

Track 21 Filename : /Volumes/int01b/Music/xldCONVERTED/2001 - Scratch - Original Motion Picture Soundtrack (Advance Promo) [FLAC] /21 Universal Noize Maker.flac

Track gain : -6.50 dB Peak : 0.989044 CRC32 hash (test run) : 2CF68C26 CRC32 hash : 2CF68C26 CRC32 hash (skip zero) : AA07E719 AccurateRip v1 signature : 9233F019 AccurateRip v2 signature : 9CB43AB9 ->Rip may not be accurate (total 3 submissions). Statistics Read error : 0 Jitter error (maybe fixed) : 0 Retry sector count : 0 Damaged sector count : 0

Track 22 Filename : /Volumes/int01b/Music/xldCONVERTED/2001 - Scratch - Original Motion Picture Soundtrack (Advance Promo) [FLAC] /22 Interlude.flac

Track gain : -4.46 dB Peak : 0.820740 CRC32 hash (test run) : AF2528B7 CRC32 hash : AF2528B7 CRC32 hash (skip zero) : 3527C281 AccurateRip v1 signature : 32F061D7 AccurateRip v2 signature : 5C102284 ->Rip may not be accurate (total 3 submissions). Statistics Read error : 0 Jitter error (maybe fixed) : 0 Retry sector count : 0 Damaged sector count : 0

Track 23 Filename : /Volumes/int01b/Music/xldCONVERTED/2001 - Scratch - Original Motion Picture Soundtrack (Advance Promo) [FLAC] /23 My Style.flac

Track gain : -7.36 dB Peak : 0.990753 CRC32 hash (test run) : BC4A7BB0 CRC32 hash : BC4A7BB0 CRC32 hash (skip zero) : 02054709 AccurateRip v1 signature : 287882A3 AccurateRip v2 signature : 1749FFC3 ->Rip may not be accurate (total 3 submissions). Statistics Read error : 0 Jitter error (maybe fixed) : 0 Retry sector count : 0 Damaged sector count : 0

No errors occurred

End of status report
TITLE "Scratch - Original Motion Picture Soundtrack (Advance Promo)"PERFORMER "Various"REM GENRE "Soundtrack"REM DATE "2001"REM DISCID 540AB217REM REPLAYGAIN_ALBUM_GAIN -8.91 dBREM REPLAYGAIN_ALBUM_PEAK 0.993378REM COMPILATION TRUEFILE "01 Prologue.flac" WAVE TRACK 01 AUDIO TITLE "Prologue" PERFORMER "Faust / Grand Wizard Theodore" FLAGS DCP REM REPLAYGAIN_TRACK_GAIN -4.67 dB REM REPLAYGAIN_TRACK_PEAK 0.988678 INDEX 01 00:00:00FILE "02 (Live Excerpt).flac" WAVE TRACK 02 AUDIO TITLE "(Live Excerpt)" PERFORMER "Mix Master Mike / DJ Disk" FLAGS DCP REM REPLAYGAIN_TRACK_GAIN -9.20 dB REM REPLAYGAIN_TRACK_PEAK 0.989716 INDEX 01 00:00:00FILE "03 Primo's X-Ecution.flac" WAVE TRACK 03 AUDIO TITLE "Primo's X-Ecution" PERFORMER "X-Ecutioners feat DJ Premier" FLAGS DCP REM REPLAYGAIN_TRACK_GAIN -9.01 dB REM REPLAYGAIN_TRACK_PEAK 0.990814 INDEX 01 00:00:00FILE "04 (Live Excerpt).flac" WAVE TRACK 04 AUDIO TITLE "(Live Excerpt)" PERFORMER "Mix Master Mike / DJ Disk" FLAGS DCP REM REPLAYGAIN_TRACK_GAIN -7.04 dB REM REPLAYGAIN_TRACK_PEAK 0.989380 INDEX 01 00:00:00FILE "05 Re-Animator.flac" WAVE TRACK 05 AUDIO TITLE "Re-Animator" PERFORMER "Rob Swift" FLAGS DCP REM REPLAYGAIN_TRACK_GAIN -9.14 dB REM REPLAYGAIN_TRACK_PEAK 0.990540 INDEX 01 00:00:00FILE "06 Interlude.flac" WAVE TRACK 06 AUDIO TITLE "Interlude" PERFORMER "Mix Master Mike" FLAGS DCP REM REPLAYGAIN_TRACK_GAIN -5.84 dB REM REPLAYGAIN_TRACK_PEAK 0.988678 INDEX 01 00:00:00FILE "07 Rockit 2.002.flac" WAVE TRACK 07 AUDIO TITLE "Rockit 2.002" PERFORMER "Herbie Hancock feat Mix Master Mike, Grand Mixer DXT, Rob Swift, Qbert, Babu, Faust & Shortee" FLAGS DCP REM REPLAYGAIN_TRACK_GAIN -8.80 dB REM REPLAYGAIN_TRACK_PEAK 0.993378 INDEX 01 00:00:00FILE "08 Interlude.flac" WAVE TRACK 08 AUDIO TITLE "Interlude" PERFORMER "Cut Chemist" FLAGS DCP REM REPLAYGAIN_TRACK_GAIN -6.29 dB REM REPLAYGAIN_TRACK_PEAK 0.988770 INDEX 01 00:00:00FILE "09 Turntable Transformer.flac" WAVE TRACK 09 AUDIO TITLE "Turntable Transformer" PERFORMER "Cat5 vs Snayk Eyez" FLAGS DCP REM REPLAYGAIN_TRACK_GAIN -9.05 dB REM REPLAYGAIN_TRACK_PEAK 0.990143 INDEX 01 00:00:00FILE "10 Interlude.flac" WAVE TRACK 10 AUDIO TITLE "Interlude" PERFORMER "(unknown)" FLAGS DCP REM REPLAYGAIN_TRACK_GAIN -5.22 dB REM REPLAYGAIN_TRACK_PEAK 0.988647 INDEX 01 00:00:00FILE "11 (Live Excerpt).flac" WAVE TRACK 11 AUDIO TITLE "(Live Excerpt)" PERFORMER "DJ Krush" FLAGS DCP REM REPLAYGAIN_TRACK_GAIN -9.34 dB REM REPLAYGAIN_TRACK_PEAK 0.991394 INDEX 01 00:00:00FILE "12 Crazy 2 Crazy.flac" WAVE TRACK 12 AUDIO TITLE "Crazy 2 Crazy" PERFORMER "Grand Mixer DXT" FLAGS DCP REM REPLAYGAIN_TRACK_GAIN -10.18 dB REM REPLAYGAIN_TRACK_PEAK 0.991119 INDEX 01 00:00:00FILE "13 Interlude.flac" WAVE TRACK 13 AUDIO TITLE "Interlude" PERFORMER "DJ Shadow" FLAGS DCP REM REPLAYGAIN_TRACK_GAIN -4.39 dB REM REPLAYGAIN_TRACK_PEAK 0.925354 INDEX 01 00:00:00FILE "14 Invasion of the Octopus People.flac" WAVE TRACK 14 AUDIO TITLE "Invasion of the Octopus People" PERFORMER "Invisibl Skratch Piklz" FLAGS DCP REM REPLAYGAIN_TRACK_GAIN -9.17 dB REM REPLAYGAIN_TRACK_PEAK 0.990875 INDEX 01 00:00:00FILE "15 Interlude.flac" WAVE TRACK 15 AUDIO TITLE "Interlude" PERFORMER "Jazzy Jay / Afrika Bambaataa" FLAGS DCP REM REPLAYGAIN_TRACK_GAIN -6.07 dB REM REPLAYGAIN_TRACK_PEAK 0.988647 INDEX 01 00:00:00FILE "16 All 4 One.flac" WAVE TRACK 16 AUDIO TITLE "All 4 One" PERFORMER "Boogie Boy / Kid Delight / Afrika Bambaataa" FLAGS DCP REM REPLAYGAIN_TRACK_GAIN -9.68 dB REM REPLAYGAIN_TRACK_PEAK 0.990356 INDEX 01 00:00:00FILE "17 Interlude.flac" WAVE TRACK 17 AUDIO TITLE "Interlude" PERFORMER "Afrika Bambaataa" FLAGS DCP REM REPLAYGAIN_TRACK_GAIN -5.42 dB REM REPLAYGAIN_TRACK_PEAK 0.908295 INDEX 01 00:00:00FILE "18 Skin Cracked Canals.flac" WAVE TRACK 18 AUDIO TITLE "Skin Cracked Canals" PERFORMER "DJ Disk / Buckethead" FLAGS DCP REM REPLAYGAIN_TRACK_GAIN -9.02 dB REM REPLAYGAIN_TRACK_PEAK 0.992920 INDEX 01 00:00:00FILE "19 Interlude.flac" WAVE TRACK 19 AUDIO TITLE "Interlude" PERFORMER "(unknown)" FLAGS DCP REM REPLAYGAIN_TRACK_GAIN -6.76 dB REM REPLAYGAIN_TRACK_PEAK 0.989441 INDEX 01 00:00:00FILE "20 Cut Transmitter.flac" WAVE TRACK 20 AUDIO TITLE "Cut Transmitter" PERFORMER "Grand Mixer DXT / Jah Wobble" FLAGS DCP REM REPLAYGAIN_TRACK_GAIN -8.79 dB REM REPLAYGAIN_TRACK_PEAK 0.990631 INDEX 01 00:00:00FILE "21 Universal Noize Maker.flac" WAVE TRACK 21 AUDIO TITLE "Universal Noize Maker" PERFORMER "Eddie Def" FLAGS DCP REM REPLAYGAIN_TRACK_GAIN -6.50 dB REM REPLAYGAIN_TRACK_PEAK 0.989044 INDEX 01 00:00:00FILE "22 Interlude.flac" WAVE TRACK 22 AUDIO TITLE "Interlude" PERFORMER "Faust / Qbert / Mix Master Mike" FLAGS DCP REM REPLAYGAIN_TRACK_GAIN -4.46 dB REM REPLAYGAIN_TRACK_PEAK 0.820740 INDEX 01 00:00:00FILE "23 My Style.flac" WAVE TRACK 23 AUDIO TITLE "My Style" PERFORMER "Rob Swift" FLAGS DCP REM REPLAYGAIN_TRACK_GAIN -7.36 dB REM REPLAYGAIN_TRACK_PEAK 0.990753 INDEX 01 00:00:00
Scratch, the soundtrack to a turntablism documentary by Doug Pray, presents performances from some of the best DJs in history, all the way from Grand Wizard Theodore (“inventor” of the tweak scratch, who’s heard explaining its origins during the intro) through to Young Turks like DJ Faust and DJ Disk.

Please note the official release was 2002, but the advance copy was released in 2001. It appears to be identical to the official release.
<div class="clear" style="height: 8px;"></div>

Трекер:  [ 16-Фев-2017 07:30 ]

  

Скачать .torrent

Размер .torrent файла 13 KB


Размер: 302 MB
Хэш (hash) релиза: f1d0106cec8c78f4def794483c2747ba69af752b

Торренты, похожие на Ди-Джей Scratch скачать торрент

Форум Название Автор Размер S L Добавлен
Электронная музыка (video) ·· Ди-Джей / Scratch (Даг Прэй / Doug Pray) [2001 г., Музыкальный, DVDRip] L 14682193921.37 GB 0 0 1294845475

18:17

12-Янв-11

Саундтреки к фильмам и мультфильмам (mp3) ·· (Soundtrack / Turntablism / Hip-Hop) Scratch / Ди-Джей - 2002, MP3 (tracks), VBR 128-192 kbps Galfimbul 5930299857 MB 0 0 1292266346

21:52

13-Дек-10

Еще никто не оставлял запись к записи скачать торрент Ди-Джей Scratch . Будь первым!

!Обратная связь