Скачать через торрент музыку Шерлок Sherlock - The Abominable Bride бесплатно без регистрации torrent

Если у вас наблюдаются проблемы со скриншотами, переходом по ссылками, скачиванием торрентов - проблемы в блокировщике рекламы AdBlock. #хорошегоДня!


Статистика раздачи
Размер:  124 MB   |    Зарегистрирован:  7 месяцев   |    .torrent скачан:  29 раз   |   
Раздают:  1  
   
Загрузка...
 
Автор Сообщение

Galfimbul

avatar Galfimbul


Шерлок / Sherlock - The Abominable Bride

Название альбома: Sherlock - The Abominable Bride
Жанр: Score
Композитор: David Arnold & Michael Price
Год выпуска диска: 2017
Год выпуска фильма: 2010-
Производитель диска: GB
Издатель (лейбл): Silva Screen Records
Номер по каталогу: SILCD 1535
Аудиокодек: FLAC
Тип рипа: tracks+.cue
Битрейт аудио: lossless
Продолжительность: 00:27:38
Источник: Filex
Наличие сканов в содержимом раздачи: да (только обложки)
01. <span class="post-font-sans1">David Arnold & Michael Price - Second Afghan War</span> (2:00)
02. <span class="post-font-sans1">David Arnold & Michael Price - Opening Titles</span> (0:41)
03. <span class="post-font-sans1">David Arnold & Michael Price - Shooting Spree</span> (3:18)
04. <span class="post-font-sans1">David Arnold & Michael Price - Mr Hooper</span> (1:56)
05. <span class="post-font-sans1">David Arnold & Michael Price - Signing</span> (2:09)
06. <span class="post-font-sans1">David Arnold & Michael Price - The Maze</span> (2:24)
07. <span class="post-font-sans1">David Arnold & Michael Price - Broken Window</span> (3:06)
08. <span class="post-font-sans1">David Arnold & Michael Price - Cuttings</span> (3:53)
09. <span class="post-font-sans1">David Arnold & Michael Price - Unveiling the Bride</span> (3:00)
10. <span class="post-font-sans1">David Arnold & Michael Price - All the Women</span> (2:36)
11. <span class="post-font-sans1">David Arnold & Michael Price - Two of Us</span> (2:35)
Exact Audio Copy V1.3 from 2. September 2016

EAC extraction logfile from 15. February 2017, 13:08

David Arnold & Michael Price / Sherlock - The Abominable Bride

Used drive : PLEXTOR CD-R PX-230A Adapter: 1 ID: 0

Read mode : SecureUtilize accurate stream : YesDefeat audio cache : YesMake use of C2 pointers : No

Read offset correction : 738Overread into Lead-In and Lead-Out : NoFill up missing offset samples with silence : YesDelete leading and trailing silent blocks : NoNull samples used in CRC calculations : YesUsed interface : Native Win32 interface for Win NT & 2000Gap handling : Appended to previous track

Used output format : User Defined EncoderSelected bitrate : 1024 kBit/sQuality : HighAdd ID3 tag : NoCommand line compressor : C:\Program Files\Exact Audio Copy\Flac\flac.exeAdditional command line options : -6 -V -T "ARTIST=%artist%" -T "TITLE=%title%" -T "ALBUM=%albumtitle%" -T "DATE=%year%" -T "TRACKNUMBER=%tracknr%" -T "GENRE=%genre%" -T "COMMENT=%comment%" -T "ALBUMARTIST=%albuminterpret%" -T "COMPOSER=%composer%" -T "DISCNUMBER=%cdnumber%" -T "TOTALDISCS=%totalcds%" -T "TOTALTRACKS=%numtracks%" %source% -o %dest%

TOC of the extracted CD

Track | Start | Length | Start sector | End sector --------------------------------------------------------- 1 | 0:00.00 | 1:59.67 | 0 | 8991 2 | 1:59.67 | 0:40.40 | 8992 | 12031 3 | 2:40.32 | 3:18.07 | 12032 | 26888 4 | 5:58.39 | 1:55.65 | 26889 | 35578 5 | 7:54.29 | 2:08.57 | 35579 | 45235 6 | 10:03.11 | 2:23.56 | 45236 | 56016 7 | 12:26.67 | 3:06.28 | 56017 | 69994 8 | 15:33.20 | 3:52.59 | 69995 | 87453 9 | 19:26.04 | 3:00.27 | 87454 | 100980 10 | 22:26.31 | 2:35.48 | 100981 | 112653 11 | 25:02.04 | 2:34.38 | 112654 | 124241

Track 1

Filename C:\Music\FX\01 - Second Afghan War.wav

Pre-gap length 0:00:02.00

Peak level 96.7 % Extraction speed 5.6 X Track quality 100.0 % Test CRC B8342960 Copy CRC B8342960 Track not present in AccurateRip database Copy OK

Track 2

Filename C:\Music\FX\02 - Opening Titles.wav

Peak level 96.6 % Extraction speed 4.1 X Track quality 100.0 % Test CRC 88940A2A Copy CRC 88940A2A Track not present in AccurateRip database Copy OK

Track 3

Filename C:\Music\FX\03 - Shooting Spree.wav

Peak level 97.6 % Extraction speed 6.8 X Track quality 100.0 % Test CRC 77453A87 Copy CRC 77453A87 Track not present in AccurateRip database Copy OK

Track 4

Filename C:\Music\FX\04 - Mr Hooper.wav

Peak level 96.6 % Extraction speed 4.7 X Track quality 99.9 % Test CRC 396FA05D Copy CRC 396FA05D Track not present in AccurateRip database Copy OK

Track 5

Filename C:\Music\FX\05 - Signing.wav

Peak level 92.7 % Extraction speed 6.3 X Track quality 100.0 % Test CRC B1E6EA21 Copy CRC B1E6EA21 Track not present in AccurateRip database Copy OK

Track 6

Filename C:\Music\FX\06 - The Maze.wav

Peak level 96.6 % Extraction speed 5.6 X Track quality 99.9 % Test CRC B6EE5117 Copy CRC B6EE5117 Track not present in AccurateRip database Copy OK

Track 7

Filename C:\Music\FX\07 - Broken Window.wav

Peak level 97.2 % Extraction speed 7.0 X Track quality 100.0 % Test CRC 2BFEE6D8 Copy CRC 2BFEE6D8 Track not present in AccurateRip database Copy OK

Track 8

Filename C:\Music\FX\08 - Cuttings.wav

Peak level 96.4 % Extraction speed 7.6 X Track quality 100.0 % Test CRC E8C493D2 Copy CRC E8C493D2 Track not present in AccurateRip database Copy OK

Track 9

Filename C:\Music\FX\09 - Unveiling the Bride.wav

Peak level 96.6 % Extraction speed 7.8 X Track quality 100.0 % Test CRC D0B4D35C Copy CRC D0B4D35C Track not present in AccurateRip database Copy OK

Track 10

Filename C:\Music\FX\10 - All the Women.wav

Peak level 88.6 % Extraction speed 7.8 X Track quality 100.0 % Test CRC 86A9FD57 Copy CRC 86A9FD57 Track not present in AccurateRip database Copy OK

Track 11

Filename C:\Music\FX\11 - Two of Us.wav

Peak level 96.5 % Extraction speed 7.6 X Track quality 100.0 % Test CRC 913F55F8 Copy CRC 913F55F8 Track not present in AccurateRip database Copy OK

None of the tracks are present in the AccurateRip database

No errors occurred

End of status report

---- CUETools DB Plugin V2.1.6

[CTDB TOCID: Ash.dvETJZ_U31lbvk7EgYxIfg0-] foundSubmit result: Ash.dvETJZ_U31lbvk7EgYxIfg0- has been confirmedTrack | CTDB Status 1 | (1/1) Accurately ripped 2 | (1/1) Accurately ripped 3 | (1/1) Accurately ripped 4 | (1/1) Accurately ripped 5 | (1/1) Accurately ripped 6 | (1/1) Accurately ripped 7 | (1/1) Accurately ripped 8 | (1/1) Accurately ripped 9 | (1/1) Accurately ripped 10 | (1/1) Accurately ripped 11 | (1/1) Accurately ripped

==== Log checksum E3FE967CE414E5818DC4B652925740CFB019B4792FEE3D68413C5F013CAA1126 ====
REM GENRE SoundtrackREM DATE 2017REM DISCID 8206780BREM COMMENT "ExactAudioCopy v1.3 - Release # FX-405"PERFORMER "David Arnold & Michael Price"TITLE "Sherlock - The Abominable Bride"REM COMPOSER "David Arnold & Michael Price"FILE "01 - Second Afghan War.wav" WAVE TRACK 01 AUDIO TITLE "Second Afghan War" PERFORMER "David Arnold & Michael Price" REM COMPOSER "David Arnold & Michael Price" FLAGS DCP INDEX 01 00:00:00FILE "02 - Opening Titles.wav" WAVE TRACK 02 AUDIO TITLE "Opening Titles" PERFORMER "David Arnold & Michael Price" REM COMPOSER "David Arnold & Michael Price" FLAGS DCP INDEX 01 00:00:00FILE "03 - Shooting Spree.wav" WAVE TRACK 03 AUDIO TITLE "Shooting Spree" PERFORMER "David Arnold & Michael Price" REM COMPOSER "David Arnold & Michael Price" FLAGS DCP INDEX 01 00:00:00FILE "04 - Mr Hooper.wav" WAVE TRACK 04 AUDIO TITLE "Mr Hooper" PERFORMER "David Arnold & Michael Price" REM COMPOSER "David Arnold & Michael Price" FLAGS DCP INDEX 01 00:00:00FILE "05 - Signing.wav" WAVE TRACK 05 AUDIO TITLE "Signing" PERFORMER "David Arnold & Michael Price" REM COMPOSER "David Arnold & Michael Price" FLAGS DCP INDEX 01 00:00:00FILE "06 - The Maze.wav" WAVE TRACK 06 AUDIO TITLE "The Maze" PERFORMER "David Arnold & Michael Price" REM COMPOSER "David Arnold & Michael Price" FLAGS DCP INDEX 01 00:00:00FILE "07 - Broken Window.wav" WAVE TRACK 07 AUDIO TITLE "Broken Window" PERFORMER "David Arnold & Michael Price" REM COMPOSER "David Arnold & Michael Price" FLAGS DCP INDEX 01 00:00:00FILE "08 - Cuttings.wav" WAVE TRACK 08 AUDIO TITLE "Cuttings" PERFORMER "David Arnold & Michael Price" REM COMPOSER "David Arnold & Michael Price" FLAGS DCP INDEX 01 00:00:00FILE "09 - Unveiling the Bride.wav" WAVE TRACK 09 AUDIO TITLE "Unveiling the Bride" PERFORMER "David Arnold & Michael Price" REM COMPOSER "David Arnold & Michael Price" FLAGS DCP INDEX 01 00:00:00FILE "10 - All the Women.wav" WAVE TRACK 10 AUDIO TITLE "All the Women" PERFORMER "David Arnold & Michael Price" REM COMPOSER "David Arnold & Michael Price" FLAGS DCP INDEX 01 00:00:00FILE "11 - Two of Us.wav" WAVE TRACK 11 AUDIO TITLE "Two of Us" PERFORMER "David Arnold & Michael Price" REM COMPOSER "David Arnold & Michael Price" FLAGS DCP INDEX 01 00:00:00


RG Soundtracks
<div class="clear" style="height: 8px;"></div>

Трекер:  [ 15-Фев-2017 20:00 ]

  

Скачать .torrent

Размер .torrent файла 20 KB


Размер: 124 MB
Хэш (hash) релиза: 89a786c0d619e7103668ad13501a7c7bf1e6a5a7

Еще никто не оставлял запись к записи скачать торрент Шерлок Sherlock - The Abominable Bride . Будь первым!

!Обратная связь