Скачать через торрент музыку Шерлок Sherlock бесплатно без регистрации torrent

Если у вас наблюдаются проблемы со скриншотами, переходом по ссылками, скачиванием торрентов - проблемы в блокировщике рекламы AdBlock. #хорошегоДня!


Статистика раздачи
Размер:  417 MB   |    Зарегистрирован:  7 месяцев   |    .torrent скачан:  29 раз   |   
Раздают:  1  
   
Загрузка...
 
Автор Сообщение

Galfimbul

avatar Galfimbul


Шерлок / Sherlock (Music From TV Series Four)

Название альбома: Sherlock (Music From TV Series Four)
Жанр: Score
Композитор: David Arnold & Michael Price
Год выпуска диска: 2017
Год выпуска фильма: 2010-
Производитель диска: GB
Издатель (лейбл): Silva Screen Records
Номер по каталогу: SILCD 1530
Аудиокодек: FLAC
Тип рипа: tracks+.cue
Битрейт аудио: lossless
Продолжительность: 01:34:22
Источник: Filex
Наличие сканов в содержимом раздачи: да (только обложки)
CD1
01. <span class="post-font-sans1">David Arnold & Michael Price - The Stranger</span> (2:39)
02. <span class="post-font-sans1">David Arnold & Michael Price - 59 Missed Calls</span> (1:53)
03. <span class="post-font-sans1">David Arnold & Michael Price - Murder This Time</span> (4:01)
04. <span class="post-font-sans1">David Arnold & Michael Price - AGRA</span> (4:44)
05. <span class="post-font-sans1">David Arnold & Michael Price - Absolute Trust</span> (2:04)
06. <span class="post-font-sans1">David Arnold & Michael Price - Running Away</span> (4:04)
07. <span class="post-font-sans1">David Arnold & Michael Price - Cheating</span> (3:32)
08. <span class="post-font-sans1">David Arnold & Michael Price - Sharks</span> (3:31)
09. <span class="post-font-sans1">David Arnold & Michael Price - Never a Field Agent</span> (2:19)
10. <span class="post-font-sans1">David Arnold & Michael Price - Gunshot</span> (3:58)
11. <span class="post-font-sans1">David Arnold & Michael Price - Get Your Attention</span> (1:34)
12. <span class="post-font-sans1">David Arnold & Michael Price - Stopped Lying Down</span> (3:36)
13. <span class="post-font-sans1">David Arnold & Michael Price - Too Heavy</span> (2:25)
14. <span class="post-font-sans1">David Arnold & Michael Price - Window Deduction</span> (2:21)
15. <span class="post-font-sans1">David Arnold & Michael Price - Anyone</span> (3:50)
16. <span class="post-font-sans1">David Arnold & Michael Price - Favourite Room</span> (3:14)
17. <span class="post-font-sans1">David Arnold & Michael Price - You Look Different</span> (4:23)
18. <span class="post-font-sans1">David Arnold & Michael Price - No Charges</span> (2:32)
19. <span class="post-font-sans1">David Arnold & Michael Price - Who I Want to Be</span> (2:42)
20. <span class="post-font-sans1">David Arnold & Michael Price - In the Tower</span> (2:50)

CD2
01. <span class="post-font-sans1">David Arnold & Michael Price - She Was Different</span> (3:49)
02. <span class="post-font-sans1">David Arnold & Michael Price - Doing a Good Thing</span> (2:17)
03. <span class="post-font-sans1">David Arnold & Michael Price - 3 Suspects</span> (2:11)
04. <span class="post-font-sans1">David Arnold & Michael Price - Pick Up</span> (5:15)
05. <span class="post-font-sans1">David Arnold & Michael Price - Brother Mine</span> (2:22)
06. <span class="post-font-sans1">David Arnold & Michael Price - Bones</span> (3:03)
07. <span class="post-font-sans1">David Arnold & Michael Price - The Hall</span> (3:20)
08. <span class="post-font-sans1">David Arnold & Michael Price - I Had No One</span> (2:15)
09. <span class="post-font-sans1">David Arnold & Michael Price - Open Your Eyes</span> (3:48)
10. <span class="post-font-sans1">David Arnold & Michael Price - Always the Grown Up</span> (1:14)
11. <span class="post-font-sans1">David Arnold & Michael Price - Who You Really Are</span> (2:36)
01. <span class="post-font-sans1">David Arnold & Michael Price - Second Afghan War</span> (2:00)
02. <span class="post-font-sans1">David Arnold & Michael Price - Opening Titles</span> (0:41)
03. <span class="post-font-sans1">David Arnold & Michael Price - Shooting Spree</span> (3:18)
04. <span class="post-font-sans1">David Arnold & Michael Price - Mr Hooper</span> (1:56)
05. <span class="post-font-sans1">David Arnold & Michael Price - Signing</span> (2:09)
06. <span class="post-font-sans1">David Arnold & Michael Price - The Maze</span> (2:24)
07. <span class="post-font-sans1">David Arnold & Michael Price - Broken Window</span> (3:06)
08. <span class="post-font-sans1">David Arnold & Michael Price - Cuttings</span> (3:53)
09. <span class="post-font-sans1">David Arnold & Michael Price - Unveiling the Bride</span> (3:00)
10. <span class="post-font-sans1">David Arnold & Michael Price - All the Women</span> (2:36)
11. <span class="post-font-sans1">David Arnold & Michael Price - Two of Us</span> (2:35)
Exact Audio Copy V1.3 from 2. September 2016

EAC extraction logfile from 15. February 2017, 12:14

David Arnold & Michael Price / Sherlock - Series Four (CD 1)

Used drive : PLEXTOR CD-R PX-230A Adapter: 1 ID: 0

Read mode : SecureUtilize accurate stream : YesDefeat audio cache : YesMake use of C2 pointers : No

Read offset correction : 738Overread into Lead-In and Lead-Out : NoFill up missing offset samples with silence : YesDelete leading and trailing silent blocks : NoNull samples used in CRC calculations : YesUsed interface : Native Win32 interface for Win NT & 2000Gap handling : Appended to previous track

Used output format : User Defined EncoderSelected bitrate : 1024 kBit/sQuality : HighAdd ID3 tag : NoCommand line compressor : C:\Program Files\Exact Audio Copy\Flac\flac.exeAdditional command line options : -6 -V -T "ARTIST=%artist%" -T "TITLE=%title%" -T "ALBUM=%albumtitle%" -T "DATE=%year%" -T "TRACKNUMBER=%tracknr%" -T "GENRE=%genre%" -T "COMMENT=%comment%" -T "ALBUMARTIST=%albuminterpret%" -T "COMPOSER=%composer%" -T "DISCNUMBER=%cdnumber%" -T "TOTALDISCS=%totalcds%" -T "TOTALTRACKS=%numtracks%" %source% -o %dest%

TOC of the extracted CD

Track | Start | Length | Start sector | End sector --------------------------------------------------------- 1 | 0:00.00 | 2:38.38 | 0 | 11887 2 | 2:38.38 | 1:53.18 | 11888 | 20380 3 | 4:31.56 | 4:01.31 | 20381 | 38486 4 | 8:33.12 | 4:44.06 | 38487 | 59792 5 | 13:17.18 | 2:04.27 | 59793 | 69119 6 | 15:21.45 | 4:04.04 | 69120 | 87423 7 | 19:25.49 | 3:31.44 | 87424 | 103292 8 | 22:57.18 | 3:31.10 | 103293 | 119127 9 | 26:28.28 | 2:19.01 | 119128 | 129553 10 | 28:47.29 | 3:57.73 | 129554 | 147401 11 | 32:45.27 | 1:33.65 | 147402 | 154441 12 | 34:19.17 | 3:36.24 | 154442 | 170665 13 | 37:55.41 | 2:24.53 | 170666 | 181518 14 | 40:20.19 | 2:20.68 | 181519 | 192086 15 | 42:41.12 | 3:49.67 | 192087 | 209328 16 | 46:31.04 | 3:13.56 | 209329 | 223859 17 | 49:44.60 | 4:23.33 | 223860 | 243617 18 | 54:08.18 | 2:31.38 | 243618 | 254980 19 | 56:39.56 | 2:42.23 | 254981 | 267153 20 | 59:22.04 | 2:50.06 | 267154 | 279909

Track 1

Filename C:\Music\FX\01 - The Stranger.wav

Pre-gap length 0:00:02.00

Peak level 96.6 % Extraction speed 4.5 X Track quality 100.0 % Test CRC 31829348 Copy CRC 31829348 Track not present in AccurateRip database Copy OK

Track 2

Filename C:\Music\FX\02 - 59 Missed Calls.wav

Peak level 96.5 % Extraction speed 3.7 X Track quality 99.9 % Test CRC CF74AF27 Copy CRC CF74AF27 Track not present in AccurateRip database Copy OK

Track 3

Filename C:\Music\FX\03 - Murder This Time.wav

Peak level 96.7 % Extraction speed 4.8 X Track quality 100.0 % Test CRC 305789DA Copy CRC 305789DA Track not present in AccurateRip database Copy OK

Track 4

Filename C:\Music\FX\04 - Agra.wav

Peak level 96.9 % Extraction speed 5.5 X Track quality 100.0 % Test CRC 8E322EA0 Copy CRC 8E322EA0 Track not present in AccurateRip database Copy OK

Track 5

Filename C:\Music\FX\05 - Absolute Trust.wav

Peak level 96.6 % Extraction speed 4.8 X Track quality 100.0 % Test CRC 5DE2928E Copy CRC 5DE2928E Track not present in AccurateRip database Copy OK

Track 6

Filename C:\Music\FX\06 - Running Away.wav

Peak level 96.6 % Extraction speed 5.3 X Track quality 100.0 % Test CRC 4D9192FD Copy CRC 4D9192FD Track not present in AccurateRip database Copy OK

Track 7

Filename C:\Music\FX\07 - Cheating.wav

Peak level 83.8 % Extraction speed 5.2 X Track quality 100.0 % Test CRC 1993E0B4 Copy CRC 1993E0B4 Track not present in AccurateRip database Copy OK

Track 8

Filename C:\Music\FX\08 - Sharks.wav

Peak level 96.6 % Extraction speed 3.4 X Track quality 99.9 % Test CRC 7FAC68D7 Copy CRC 7FAC68D7 Track not present in AccurateRip database Copy OK

Track 9

Filename C:\Music\FX\09 - Never a Field Agent.wav

Peak level 96.5 % Extraction speed 4.9 X Track quality 100.0 % Test CRC F9988874 Copy CRC F9988874 Track not present in AccurateRip database Copy OK

Track 10

Filename C:\Music\FX\10 - Gunshot.wav

Peak level 80.4 % Extraction speed 5.3 X Track quality 100.0 % Test CRC 59F37CDA Copy CRC 59F37CDA Track not present in AccurateRip database Copy OK

Track 11

Filename C:\Music\FX\11 - Get Your Attention.wav

Peak level 96.7 % Extraction speed 4.4 X Track quality 100.0 % Test CRC CD99D1F1 Copy CRC CD99D1F1 Track not present in AccurateRip database Copy OK

Track 12

Filename C:\Music\FX\12 - Stopped Lying Down.wav

Peak level 88.6 % Extraction speed 5.2 X Track quality 100.0 % Test CRC ACBDC94B Copy CRC ACBDC94B Track not present in AccurateRip database Copy OK

Track 13

Filename C:\Music\FX\13 - Too Heavy.wav

Peak level 96.7 % Extraction speed 4.8 X Track quality 100.0 % Test CRC A03E0A77 Copy CRC A03E0A77 Track not present in AccurateRip database Copy OK

Track 14

Filename C:\Music\FX\14 - Window Deduction.wav

Peak level 96.7 % Extraction speed 3.9 X Track quality 100.0 % Test CRC 1CF088FC Copy CRC 1CF088FC Track not present in AccurateRip database Copy OK

Track 15

Filename C:\Music\FX\15 - Anyone.wav

Peak level 99.0 % Extraction speed 5.2 X Track quality 100.0 % Test CRC C0FBA147 Copy CRC C0FBA147 Track not present in AccurateRip database Copy OK

Track 16

Filename C:\Music\FX\16 - Favourite Room.wav

Peak level 81.6 % Extraction speed 5.1 X Track quality 100.0 % Test CRC CCA5F3F6 Copy CRC CCA5F3F6 Track not present in AccurateRip database Copy OK

Track 17

Filename C:\Music\FX\17 - You Look Different.wav

Peak level 96.8 % Extraction speed 5.3 X Track quality 100.0 % Test CRC 12B3C1BF Copy CRC 12B3C1BF Track not present in AccurateRip database Copy OK

Track 18

Filename C:\Music\FX\18 - No Charges.wav

Peak level 96.5 % Extraction speed 4.6 X Track quality 100.0 % Test CRC D30B130A Copy CRC D30B130A Track not present in AccurateRip database Copy OK

Track 19

Filename C:\Music\FX\19 - Who I Want to Be.wav

Peak level 87.4 % Extraction speed 4.1 X Track quality 99.9 % Test CRC A1F2B725 Copy CRC A1F2B725 Track not present in AccurateRip database Copy OK

Track 20

Filename C:\Music\FX\20 - In the Tower.wav

Peak level 96.7 % Extraction speed 4.7 X Track quality 100.0 % Test CRC 975A2BC5 Copy CRC 975A2BC5 Track not present in AccurateRip database Copy OK

None of the tracks are present in the AccurateRip database

No errors occurred

End of status report

---- CUETools DB Plugin V2.1.6

[CTDB TOCID: kM9mM3aXjgq2EumPd3ZeMHBB.8E-] disk not present in databaseSubmit result: kM9mM3aXjgq2EumPd3ZeMHBB.8E- has been uploaded

==== Log checksum EEF285BADDDF6EE8972DEDC9B0B2E3010E67CA33F3B3ADC3C56BAECF887349F6 ====
Exact Audio Copy V1.3 from 2. September 2016

EAC extraction logfile from 15. February 2017, 12:41

David Arnold & Michael Price / Sherlock - Series Four (CD 2)

Used drive : PLEXTOR CD-R PX-230A Adapter: 1 ID: 0

Read mode : SecureUtilize accurate stream : YesDefeat audio cache : YesMake use of C2 pointers : No

Read offset correction : 738Overread into Lead-In and Lead-Out : NoFill up missing offset samples with silence : YesDelete leading and trailing silent blocks : NoNull samples used in CRC calculations : YesUsed interface : Native Win32 interface for Win NT & 2000Gap handling : Appended to previous track

Used output format : User Defined EncoderSelected bitrate : 1024 kBit/sQuality : HighAdd ID3 tag : NoCommand line compressor : C:\Program Files\Exact Audio Copy\Flac\flac.exeAdditional command line options : -6 -V -T "ARTIST=%artist%" -T "TITLE=%title%" -T "ALBUM=%albumtitle%" -T "DATE=%year%" -T "TRACKNUMBER=%tracknr%" -T "GENRE=%genre%" -T "COMMENT=%comment%" -T "ALBUMARTIST=%albuminterpret%" -T "COMPOSER=%composer%" -T "DISCNUMBER=%cdnumber%" -T "TOTALDISCS=%totalcds%" -T "TOTALTRACKS=%numtracks%" %source% -o %dest%

TOC of the extracted CD

Track | Start | Length | Start sector | End sector --------------------------------------------------------- 1 | 0:00.00 | 3:49.34 | 0 | 17208 2 | 3:49.34 | 2:16.59 | 17209 | 27467 3 | 6:06.18 | 2:11.19 | 27468 | 37311 4 | 8:17.37 | 5:15.16 | 37312 | 60952 5 | 13:32.53 | 2:22.24 | 60953 | 71626 6 | 15:55.02 | 3:03.02 | 71627 | 85353 7 | 18:58.04 | 3:19.64 | 85354 | 100342 8 | 22:17.68 | 2:15.22 | 100343 | 110489 9 | 24:33.15 | 3:47.50 | 110490 | 127564 10 | 28:20.65 | 1:14.32 | 127565 | 133146 11 | 29:35.22 | 2:35.58 | 133147 | 144829

Track 1

Filename C:\Music\FX\01 - She Was Different.wav

Pre-gap length 0:00:02.00

Peak level 88.0 % Extraction speed 4.8 X Track quality 100.0 % Test CRC 89101095 Copy CRC 89101095 Track not present in AccurateRip database Copy OK

Track 2

Filename C:\Music\FX\02 - Doing a Good Thing.wav

Peak level 97.8 % Extraction speed 3.3 X Track quality 99.9 % Test CRC 4AAA94FE Copy CRC 4AAA94FE Track not present in AccurateRip database Copy OK

Track 3

Filename C:\Music\FX\03 - 3 Suspects.wav

Peak level 96.7 % Extraction speed 4.8 X Track quality 100.0 % Test CRC 39355015 Copy CRC 39355015 Track not present in AccurateRip database Copy OK

Track 4

Filename C:\Music\FX\04 - Pick Up.wav

Peak level 87.2 % Extraction speed 5.5 X Track quality 100.0 % Test CRC ABC3C618 Copy CRC ABC3C618 Track not present in AccurateRip database Copy OK

Track 5

Filename C:\Music\FX\05 - Brother Mine.wav

Peak level 96.5 % Extraction speed 3.6 X Track quality 100.0 % Test CRC 02DB27D4 Copy CRC 02DB27D4 Track not present in AccurateRip database Copy OK

Track 6

Filename C:\Music\FX\06 - Bones.wav

Peak level 93.3 % Extraction speed 4.4 X Track quality 100.0 % Test CRC 5A02AEDA Copy CRC 5A02AEDA Track not present in AccurateRip database Copy OK

Track 7

Filename C:\Music\FX\07 - The Hall.wav

Peak level 96.3 % Extraction speed 4.5 X Track quality 99.9 % Test CRC 53EF609B Copy CRC 53EF609B Track not present in AccurateRip database Copy OK

Track 8

Filename C:\Music\FX\08 - I Had No One.wav

Peak level 96.8 % Extraction speed 3.6 X Track quality 100.0 % Test CRC FC441F08 Copy CRC FC441F08 Track not present in AccurateRip database Copy OK

Track 9

Filename C:\Music\FX\09 - Open Your Eyes.wav

Peak level 96.7 % Extraction speed 4.9 X Track quality 100.0 % Test CRC 5D8585ED Copy CRC 5D8585ED Track not present in AccurateRip database Copy OK

Track 10

Filename C:\Music\FX\10 - Always the Grown Up.wav

Peak level 96.6 % Extraction speed 4.0 X Track quality 100.0 % Test CRC A710F155 Copy CRC A710F155 Track not present in AccurateRip database Copy OK

Track 11

Filename C:\Music\FX\11 - Who You Really Are.wav

Peak level 96.8 % Extraction speed 4.7 X Track quality 100.0 % Test CRC 5A9BEC27 Copy CRC 5A9BEC27 Track not present in AccurateRip database Copy OK

None of the tracks are present in the AccurateRip database

No errors occurred

End of status report

---- CUETools DB Plugin V2.1.6

[CTDB TOCID: KMQoPMQKxn69tXRHJ5SBhJKvUZA-] disk not present in databaseSubmit result: KMQoPMQKxn69tXRHJ5SBhJKvUZA- has been uploaded

==== Log checksum F61546EA2BB64543A2020CBE8C5D83620A72D1FE914924C292B1C50BE81C7051 ====
REM GENRE SoundtrackREM DATE 2017REM DISCID 2B0E9414REM COMMENT "ExactAudioCopy v1.3 - Release # FX-404"PERFORMER "David Arnold & Michael Price"TITLE "Sherlock - Series Four (CD 1)"REM COMPOSER "David Arnold & Michael Price"FILE "01 - The Stranger.wav" WAVE TRACK 01 AUDIO TITLE "The Stranger" PERFORMER "David Arnold & Michael Price" REM COMPOSER "David Arnold & Michael Price" FLAGS DCP INDEX 01 00:00:00FILE "02 - 59 Missed Calls.wav" WAVE TRACK 02 AUDIO TITLE "59 Missed Calls" PERFORMER "David Arnold & Michael Price" REM COMPOSER "David Arnold & Michael Price" FLAGS DCP INDEX 01 00:00:00FILE "03 - Murder This Time.wav" WAVE TRACK 03 AUDIO TITLE "Murder This Time" PERFORMER "David Arnold & Michael Price" REM COMPOSER "David Arnold & Michael Price" FLAGS DCP INDEX 01 00:00:00FILE "04 - AGRA.wav" WAVE TRACK 04 AUDIO TITLE "AGRA" PERFORMER "David Arnold & Michael Price" REM COMPOSER "David Arnold & Michael Price" FLAGS DCP INDEX 01 00:00:00FILE "05 - Absolute Trust.wav" WAVE TRACK 05 AUDIO TITLE "Absolute Trust" PERFORMER "David Arnold & Michael Price" REM COMPOSER "David Arnold & Michael Price" FLAGS DCP INDEX 01 00:00:00FILE "06 - Running Away.wav" WAVE TRACK 06 AUDIO TITLE "Running Away" PERFORMER "David Arnold & Michael Price" REM COMPOSER "David Arnold & Michael Price" FLAGS DCP INDEX 01 00:00:00FILE "07 - Cheating.wav" WAVE TRACK 07 AUDIO TITLE "Cheating" PERFORMER "David Arnold & Michael Price" REM COMPOSER "David Arnold & Michael Price" FLAGS DCP INDEX 01 00:00:00FILE "08 - Sharks.wav" WAVE TRACK 08 AUDIO TITLE "Sharks" PERFORMER "David Arnold & Michael Price" REM COMPOSER "David Arnold & Michael Price" FLAGS DCP INDEX 01 00:00:00FILE "09 - Never a Field Agent.wav" WAVE TRACK 09 AUDIO TITLE "Never a Field Agent" PERFORMER "David Arnold & Michael Price" REM COMPOSER "David Arnold & Michael Price" FLAGS DCP INDEX 01 00:00:00FILE "10 - Gunshot.wav" WAVE TRACK 10 AUDIO TITLE "Gunshot" PERFORMER "David Arnold & Michael Price" REM COMPOSER "David Arnold & Michael Price" FLAGS DCP INDEX 01 00:00:00FILE "11 - Get Your Attention.wav" WAVE TRACK 11 AUDIO TITLE "Get Your Attention" PERFORMER "David Arnold & Michael Price" REM COMPOSER "David Arnold & Michael Price" FLAGS DCP INDEX 01 00:00:00FILE "12 - Stopped Lying Down.wav" WAVE TRACK 12 AUDIO TITLE "Stopped Lying Down" PERFORMER "David Arnold & Michael Price" REM COMPOSER "David Arnold & Michael Price" FLAGS DCP INDEX 01 00:00:00FILE "13 - Too Heavy.wav" WAVE TRACK 13 AUDIO TITLE "Too Heavy" PERFORMER "David Arnold & Michael Price" REM COMPOSER "David Arnold & Michael Price" FLAGS DCP INDEX 01 00:00:00FILE "14 - Window Deduction.wav" WAVE TRACK 14 AUDIO TITLE "Window Deduction" PERFORMER "David Arnold & Michael Price" REM COMPOSER "David Arnold & Michael Price" FLAGS DCP INDEX 01 00:00:00FILE "15 - Anyone.wav" WAVE TRACK 15 AUDIO TITLE "Anyone" PERFORMER "David Arnold & Michael Price" REM COMPOSER "David Arnold & Michael Price" FLAGS DCP INDEX 01 00:00:00FILE "16 - Favourite Room.wav" WAVE TRACK 16 AUDIO TITLE "Favourite Room" PERFORMER "David Arnold & Michael Price" REM COMPOSER "David Arnold & Michael Price" FLAGS DCP INDEX 01 00:00:00FILE "17 - You Look Different.wav" WAVE TRACK 17 AUDIO TITLE "You Look Different" PERFORMER "David Arnold & Michael Price" REM COMPOSER "David Arnold & Michael Price" FLAGS DCP INDEX 01 00:00:00FILE "18 - No Charges.wav" WAVE TRACK 18 AUDIO TITLE "No Charges" PERFORMER "David Arnold & Michael Price" REM COMPOSER "David Arnold & Michael Price" FLAGS DCP INDEX 01 00:00:00FILE "19 - Who I Want to Be.wav" WAVE TRACK 19 AUDIO TITLE "Who I Want to Be" PERFORMER "David Arnold & Michael Price" REM COMPOSER "David Arnold & Michael Price" FLAGS DCP INDEX 01 00:00:00FILE "20 - In the Tower.wav" WAVE TRACK 20 AUDIO TITLE "In the Tower" PERFORMER "David Arnold & Michael Price" REM COMPOSER "David Arnold & Michael Price" FLAGS DCP INDEX 01 00:00:00
REM GENRE SoundtrackREM DATE 2017REM DISCID 98078B0BREM COMMENT "ExactAudioCopy v1.3 - Release # FX-404"PERFORMER "David Arnold & Michael Price"TITLE "Sherlock - Series Four (CD 2)"REM COMPOSER "David Arnold & Michael Price"FILE "01 - She Was Different.wav" WAVE TRACK 01 AUDIO TITLE "She Was Different" PERFORMER "David Arnold & Michael Price" REM COMPOSER "David Arnold & Michael Price" FLAGS DCP INDEX 01 00:00:00FILE "02 - Doing a Good Thing.wav" WAVE TRACK 02 AUDIO TITLE "Doing a Good Thing" PERFORMER "David Arnold & Michael Price" REM COMPOSER "David Arnold & Michael Price" FLAGS DCP INDEX 01 00:00:00FILE "03 - 3 Suspects.wav" WAVE TRACK 03 AUDIO TITLE "3 Suspects" PERFORMER "David Arnold & Michael Price" REM COMPOSER "David Arnold & Michael Price" FLAGS DCP INDEX 01 00:00:00FILE "04 - Pick Up.wav" WAVE TRACK 04 AUDIO TITLE "Pick Up" PERFORMER "David Arnold & Michael Price" REM COMPOSER "David Arnold & Michael Price" FLAGS DCP INDEX 01 00:00:00FILE "05 - Brother Mine.wav" WAVE TRACK 05 AUDIO TITLE "Brother Mine" PERFORMER "David Arnold & Michael Price" REM COMPOSER "David Arnold & Michael Price" FLAGS DCP INDEX 01 00:00:00FILE "06 - Bones.wav" WAVE TRACK 06 AUDIO TITLE "Bones" PERFORMER "David Arnold & Michael Price" REM COMPOSER "David Arnold & Michael Price" FLAGS DCP INDEX 01 00:00:00FILE "07 - The Hall.wav" WAVE TRACK 07 AUDIO TITLE "The Hall" PERFORMER "David Arnold & Michael Price" REM COMPOSER "David Arnold & Michael Price" FLAGS DCP INDEX 01 00:00:00FILE "08 - I Had No One.wav" WAVE TRACK 08 AUDIO TITLE "I Had No One" PERFORMER "David Arnold & Michael Price" REM COMPOSER "David Arnold & Michael Price" FLAGS DCP INDEX 01 00:00:00FILE "09 - Open Your Eyes.wav" WAVE TRACK 09 AUDIO TITLE "Open Your Eyes" PERFORMER "David Arnold & Michael Price" REM COMPOSER "David Arnold & Michael Price" FLAGS DCP INDEX 01 00:00:00FILE "10 - Always the Grown Up.wav" WAVE TRACK 10 AUDIO TITLE "Always the Grown Up" PERFORMER "David Arnold & Michael Price" REM COMPOSER "David Arnold & Michael Price" FLAGS DCP INDEX 01 00:00:00FILE "11 - Who You Really Are.wav" WAVE TRACK 11 AUDIO TITLE "Who You Really Are" PERFORMER "David Arnold & Michael Price" REM COMPOSER "David Arnold & Michael Price" FLAGS DCP INDEX 01 00:00:00


RG Soundtracks
<div class="clear" style="height: 8px;"></div>

Трекер:  [ 15-Фев-2017 20:00 ]

  

Скачать .torrent

Размер .torrent файла 19 KB


Размер: 417 MB
Хэш (hash) релиза: 5ca11ba1ee2514b4e4ff97836ec39db7abef89b1

Торренты, похожие на Шерлок Sherlock скачать торрент

Форум Название Автор Размер S L Добавлен
Саундтреки к фильмам и мультфильмам (lossless) ·· (Score/TV) Шерлок / Sherlock - The Abominable Bride (by David Arnold & Michael Price) - 2017 (2010-), FLAC (tracks+.cue) lossless Galfimbul 130536221124 MB 0 0 1487183137

21:25

15-Фев-17

Саундтреки к фильмам и мультфильмам (lossless) ·· (Soundtrack) Шерлок / Sherlock Series 4 (David Arnold & Michael Price) (3 Albums) - 2017, FLAC (tracks), lossless Galfimbul 432548813413 MB 0 0 1485104088

19:54

22-Янв-17

Саундтреки к фильмам и мультфильмам (mp3) ·· (Score/TV) Шерлок / Sherlock Series 4 (David Arnold & Michael Price) (3 Albums) - 2017, MP3, 320 kbps Galfimbul 234398116224 MB 0 0 1484491332

17:42

15-Янв-17

Саундтреки к фильмам и мультфильмам (mp3) ·· (Score/TV) Шерлок / Sherlock Series 4: The Six Thatchers (David Arnold & Michael Price) - 2017, MP3, 320 kbps Galfimbul 8518362481 MB 0 0 1483291796

20:29

1-Янв-17

Саундтреки ·· (Score) Шерлок / Sherlock [Music From Series One] (by David Arnold & Michael Price) - 2012 (2010), FLAC (tracks+.cue), lossless Galfimbul 373019364356 MB 0 0 1342707900

17:25

19-Июл-12

Саундтреки ·· (Score) Шерлок / Sherlock (Music From Series Two) (by David Arnold & Michael Price) - 2012, FLAC (tracks+.cue), lossless Umakiro 295798491282 MB 0 0 1332246660

15:31

20-Мар-12

Саундтреки ·· (Score) Шерлок / Sherlock (Music From Series Two) (David Arnold & Michael Price) - 2012, MP3, V0 ~232 kbps Umakiro 191684075183 MB 0 0 1332154380

13:53

19-Мар-12

Саундтреки к фильмам и мультфильмам (lossless) ·· (Score) Шерлок Холмс / Sherlock Holmes (by Patrick Gowers) - 2000 (1987), WavPack (image+.cue), lossless Galfimbul 254200881242 MB 0 0 1446984581

15:09

8-Ноя-15

Саундтреки к фильмам и мультфильмам (mp3) ·· (Score) Шерлок Холмс / Sherlock Holmes (Recording Sessions) (by Hans Zimmer) - 2013 (2009), MP3, 320 kbps Galfimbul 261573069249 MB 0 0 1368391073

23:37

12-Май-13

Саундтреки к фильмам и мультфильмам (lossless) ·· (Score) Шерлок Холмс: Игра теней / Sherlock Holmes: A Game of Shadows (by Hans Zimmer) - 2011, FLAC (tracks+.cue), lossless uzi2009 374367782357 MB 0 0 1323974546

21:42

15-Дек-11

Саундтреки к фильмам и мультфильмам (mp3) ·· (Score) Шерлок Холмс: Игра теней / Sherlock Holmes: A Game of Shadows (by Hans Zimmer) - 2011, MP3, 320 kbps, 256 kbps Galfimbul 177038372169 MB 2 0 1323974544

21:42

15-Дек-11

Саундтреки к фильмам и мультфильмам (mp3) ·· (Score) Шерлок Холмс / Sherlock Holmes (by Hans Zimmer) - 2009, MP3, 320 kbps demon4ik 132265057126 MB 0 0 1292332247

16:10

14-Дек-10

Саундтреки к фильмам и мультфильмам (lossless) ·· (Score) Шерлок Холмс / Sherlock Holmes (Hans Zimmer) - 2009, FLAC (tracks+.cue), lossless AqvaGen 268426754256 MB 0 0 1292268421

22:27

13-Дек-10

Еще никто не оставлял запись к записи скачать торрент Шерлок Sherlock . Будь первым!

!Обратная связь