Скачать через торрент Участок лейтенанта Качуры Фильм 4 - Чёрная паутина Фильм бесплатно в хорошем качестве torrent

Скачивайте на UnionPeer.org фильмы через торрент без регистрации. Новинки кино в хорошем качестве через торрент. На UnionPeer.org можно скачать через торрент фильмы 2014 и 2015 годов. Самые новые фильмы.

Скачать торрент Участок лейтенанта Качуры Фильм 4 - Чёрная паутина бесплатно через .torrent фильм мультфильм сериал

Если у вас наблюдаются проблемы со скриншотами, переходом по ссылками, скачиванием торрентов - проблемы в блокировщике рекламы AdBlock. #хорошегоДня!


Статистика раздачи
Размер:  4 GB   |    Зарегистрирован:  7 месяцев   |    .torrent скачан:  195 раз   |   
Раздают:  1  
   
Загрузка...
 
Автор Сообщение

Galfimbul

avatar Galfimbul


Участок лейтенанта Качуры. Фильм 4. Чёрная паутина

Год выпуска: 2015
Жанр: Беларусьфильм
Продолжительность серии: 00:52:03
Количество серий: 1-4 из 4
Режиссёр: Четвериков Игорь

В ролях: Павел Харланчук, Валентина Гарцуева, Константин Михаленко, Александр Жданович, Сергей Власов, Сергей Чекерес, Андрей Сенькин, Андрей Карако, Александр Овчинников, Татьяна Чердынцева, Роман Подоляко, Артур Шуляк, Егор Кучиц, Наталья Горбатенко, Олеся Грибок и др.

Описание: Очередное дело старшего лейтенанта Качуры начинается с обнаружения на железной дороге трупа неизвестного мужчины. В сумке убитого эксперты обнаруживают остатки неизвестного синтетического наркотика, используемого для кустарного приготовления «спайсов», распространение которых уже вышло за границы района и области. Расследованием преступления занимается начальник следственного отдела майор Терешко и его подчинённые, в числе которых – Карина Бартош, новый молодой следователь из Минска, и, конечно же, участковый Андрей Качура. Параллельно с расследованием инцидента на железной дороге, Бартош и Качура занимаются поиском старшеклассницы Вики Красовской, пропавшей при невыясненных обстоятельствах... Дело принимает трагический оборот, когда в маленьком тихом Заречье от передозировки злосчастным наркотическим веществом гибнут двое подростков. Майор Терешко и его подчинённые бросают все силы на поиски распространителей смертоносного зелья, но найти злоумышленников непросто – изощрённым преступником, создавшим свою паутину наркобизнеса, оказывается человек, которого сложно в чём-либо заподозрить. Человек, скрывающийся под маской...

Доп. информация: Запись потока *.ts с наземного цифрового телеканала "СТВ" (Столичное телевидение)

Автор сценария: Залужный Валентин Иванович при участии Игоря Четверикова
Оператор-постановщик: Александр Смоляк
Художник-постановщик: Михаил Кузьмин
Композитор: Владимир Сивицкий

Релиз:



Благодарность: за помощь с недостающим материалом <a href="profile.php?mode=viewprofile&u=26682041" class="postLink">Bartimeyse</a> и <a href="profile.php?mode=viewprofile&u=19346396" class="postLink">PavelDAS</a>. Обоим большое спасибо! Качество: DVB
Контейнер: TS
Видео кодек: H.264
Аудио кодек: MP2
Видео: MPEG4 Video (H264) 720(1047)x576 (16:9) 25fps, 2 359 kb/s
Аудио: MPEG Audio 48000Hz stereo 256kbps

Реклама: Да, во время показа присутствуют наложенные анонсы.

<a href="tracker.php?nm=%D0%98%D0%BB%D0%BB%D1%8E%D0%B7%D0%B8%D1%8F%20%D0%BE%D1%85%D0%BE%D1%82%D1%8B%20(2010)" class="postLink"> 1 сезон. Иллюзия охоты (2010)</a>

<a href="tracker.php?nm=%D0%A1%D0%B5%D1%82%D0%B5%D0%B2%D0%B0%D1%8F%20%D1%83%D0%B3%D1%80%D0%BE%D0%B7%D0%B0%20(2011)" class="postLink"> 2 сезон. Сетевая угроза (2011)</a>

<a href="tracker.php?nm=%D0%A1%D0%BC%D0%B5%D1%80%D1%82%D0%B5%D0%BB%D1%8C%D0%BD%D1%8B%D0%B9%20%D1%82%D0%B0%D0%BD%D0%B5%D1%86%20(2012)" class="postLink"> 3 сезон. Смертельный танец (2012)</a>

Сэмпл: http://multi-up.com/
GeneralID : 1 (0x1)Complete name : D:\Новая земля 2\Художественные фильмы\Участок лейтенанта Качуры. Чёрная паутина (2015)\Участок лейтенанта Качуры. Фильм 4. Чёрная паутина (2015)\Участок лейтенанта Качуры. Чёрная паутина. С1 (2015).tsFormat : MPEG-TSFile size : 1.00 GiBDuration : 52 minOverall bit rate mode : VariableOverall bit rate : 2 754 kb/s

VideoID : 401 (0x191)Menu ID : 4 (0x4)Format : AVCFormat/Info : Advanced Video CodecFormat profile : Main@L3Format settings, CABAC : YesFormat settings, ReFrames : 4 framesCodec ID : 27Duration : 52 minBit rate : 2 359 kb/sWidth : 720 pixelsHeight : 576 pixelsDisplay aspect ratio : 16:9Frame rate : 25.000 FPSStandard : PALColor space : YUVChroma subsampling : 4:2:0Bit depth : 8 bitsScan type : MBAFFScan type, store method : Separated fieldsScan order : Top Field FirstBits/(Pixel*Frame) : 0.228Stream size : 878 MiB (86%)Color range : LimitedColor primaries : BT.601 PALTransfer characteristics : BT.470 System B, BT.470 System GMatrix coefficients : BT.601

AudioID : 402 (0x192)Menu ID : 4 (0x4)Format : MPEG AudioFormat version : Version 1Format profile : Layer 2Codec ID : 3Duration : 52 minBit rate mode : ConstantBit rate : 256 kb/sChannel(s) : 2 channelsSampling rate : 48.0 kHzCompression mode : LossyStream size : 95.3 MiB (9%)Language : English
<div class="clear" style="height: 8px;"></div>

Трекер:  [ 15-Фев-2017 16:30 ]

  

Скачать .torrent

Размер .torrent файла 21 KB


Размер: 4 GB
Хэш (hash) релиза: 2d36341ee0d3e4b693090e94c3deae930a4b74d6
Подписка на обновления:

Еще никто не оставлял запись к записи скачать торрент Участок лейтенанта Качуры Фильм 4 - Чёрная паутина . Будь первым!

!Обратная связь