Скачать через торрент Счастливы вместе. Сезоны 1-6 Серии: 1-365 из 365 Фильм бесплатно в хорошем качестве torrent

Скачивайте на UnionPeer.org фильмы через торрент без регистрации. Новинки кино в хорошем качестве через торрент. На UnionPeer.org можно скачать через торрент фильмы 2014 и 2015 годов. Самые новые фильмы.

Скачать торрент Счастливы вместе. Сезоны 1-6 Серии: 1-365 из 365 бесплатно через .torrent фильм мультфильм сериал

Статистика раздачи
Размер:  207.63 GB   |    Зарегистрирован:  1 месяц 12 дней   |    .torrent скачан:  34 раза   |   
Раздают:  1  
   
 
Автор Сообщение

Galfimbul

avatar Galfimbul


Счастливы вместе
"Сезоны 1 - 6" (Серии 1-365 из 365)
Год выпуска: 2006 - 2012
Производство: Продюсерский центр «ЛЕАН-М» со
Жанр: Комедийный телесериал (ситком)
Продолжительность: 25 минут серия
Субтитры: Нет

Режиссёр: Георгий Дронов, Иван Китаев

В ролях: Виктор Логинов, Наталья Бочкарева, Дарья Сагалова, Александр Якин, Татьяна Уфимцева, Павел Савинков, Алексей Секирин, Юлия Захарова и др.

Описание: «Счастливы вместе» - комедийный сериал, российская версия американского сериала «Женаты… с детьми» (англ. Married… with children),
транслировался на российском телеканале ТНТ и украинском «Новом канале».
Сериал повествует о повседневной жизни и быте Екатеринбургской семьи.
Сериал рассказывает о «типичной» российской семье, состоящей из мужа, жены, двух (некоторое время - трёх) детей и собаки, которые живут в Екатеринбурге. Глава семьи Гена Букин - продавец женской обуви, неудачник как в личной жизни, так и в своей «карьере». Его жена Даша - домохозяйка, которая большую часть времени проводит перед телевизором за поеданием конфет. Их дети - привлекательная и глупая дочь Света, неудачливый в общении с противоположным полом, но умный сын Рома. Соседка Букиных Лена почему-то считается весьма непривлекательной женщиной. С ней сожительствуют в разное время Женя Степанов (первый муж), который, в итоге бросает её и становится егерем,
и Толик Полено (второй муж) - бывший преступник, красавчик и альфонс.
Как и в других ситуационных комедиях, юмор сериала строится на том, что герои постоянно попадают в различные сложные или иногда даже смешные ситуации и пытаются выйти из них.

Реклама: Нет

Все раздачи сериала: <a href="tracker.php?f=9&nm=%F1%F7%E0%F1%F2%EB%E8%E2%FB+%E2%EC%E5%F1%F2%E5" class="postLink">...9&nm=%F1%F7%E0%F1%F2%EB%E8%E2%FB+%E2%EC%E5%F1%F2%E5</a>

Качество: DVB
Формат: MPEG-PS
Видео кодек: MPEG2
Аудио кодек: MPEG Audio
Видео: MPEG2 Video 704x576 (4:3) 25.00fps от ~2348 Kbps до ~4462 Kbps, от 0.232 bit/pixel до 0.430
Аудио: MPEG Audio 48000Hz mono 192 Kbps Channel(s) : 1 channel
1 Сезон - 100 серий.
2 Сезон - 96 серий.
3 Сезон - 49 серий.
4 Сезон - 49 серий.
5 Сезон - 20 серий.
6 Сезон - 50 серий.
+Узник подземелья, отдельно.
Format : MPEG-PS
File size : 400 MiB
Duration : 21 min 33 s
Overall bit rate mode : Variable
Overall bit rate : 2 592 kb/s

Video
ID : 224 (0xE0)
Format : MPEG Video
Format version : Version 2
Format profile : Main@Main
Format settings, BVOP : Yes
Format settings, Matrix : Custom
Format settings, GOP : M=3, N=24
Duration : 21 min 33 s
Bit rate mode : Variable
Bit rate : 2 348 kb/s
Maximum bit rate : 15.0 Mb/s
Width : 704 pixels
Height : 576 pixels
Display aspect ratio : 4:3
Frame rate : 25.000 FPS
Standard : PAL
Color space : YUV
Chroma subsampling : 4:2:0
Bit depth : 8 bits
Compression mode : Lossy
Bits/(Pixel*Frame) : 0.232
Time code of first frame : 00:00:00:00
Time code source : Group of pictures header
GOP, Open/Closed : Open
GOP, Open/Closed of first f : Closed
Stream size : 362 MiB (91%)

Audio
ID : 192 (0xC0)
Format : MPEG Audio
Format version : Version 1
Format profile : Layer 2
Mode extension : Intensity Stereo + MS Stereo
Duration : 21 min 33 s
Bit rate mode : Constant
Bit rate : 192 kb/s
Channel(s) : 1 channel
Sampling rate : 48.0 kHz
Compression mode : Lossy
Stream size : 29.6 MiB (7%)
<div class="clear" style="height: 8px;"></div>

Трекер:  [ 15-Фев-2017 03:00 ]

  

Скачать .torrent

Размер .torrent файла 553 KB


Размер: 207.63 GB
Хэш (hash) релиза: ec173af5ee8481c20eb3eb94225bd622b131c9f3
Подписка на обновления:

Еще никто не оставлял запись к записи скачать торрент Счастливы вместе. Сезоны 1-6 Серии: 1-365 из 365 . Будь первым!

!Обратная связь