Скачать порно через торрент Fever Pitch Ажиотаж UnionPeer.org бесплатно онлайн HD качество

Скачать новое порно 2015, 2014 новинки через торрент UnionPeer.org

Порно торрент бесплатно ЮнионПир.орг

Если у вас наблюдаются проблемы со скриншотами, переходом по ссылками, скачиванием торрентов - проблемы в блокировщике рекламы AdBlock. #хорошегоДня!


Статистика раздачи
Размер:  1.26 GB   |    Зарегистрирован:  6 месяцев   |    .torrent скачан:  38 раз   |   
Раздают:  1  
   
Загрузка...
 
Автор Сообщение

Galfimbul

avatar Galfimbul



Fever Pitch
Ажиотаж

Год производства:
1988 г.
Страна:
US
Жанр:
Oral,Anal Sex
Продолжительность:
01:27:41
Студия:
Seabag ProductionsВ ролях:
Bill Michaels,Doug Grant,Jared Scott,Matt Erickson,Matt Johnson (white),Steve Carson,Steve Ross
Описание:
When the all-American boy next door moves in with his girlfriend''s brother, he discovers a hard driving world full of no hold barred masculine excitement. Feel yourself shift into higher gear as the action accelerates to a "Fever Pitch"!
Качество видео:
VHSRip
Формат видео:
WMV
Видео:
WMV3,640 pixels x 480 pixels,29.970FPS,1 975 kb/s
Аудио:
WMA,48.0 kHz,Lossy,64.0 kb/s
Format : Windows Media
File size : 1.26 GiB
Duration : 1 h 27 min
Overall bit rate mode : Constant
Overall bit rate : 2 049 kb/s
Maximum Overall bit rate : 2 059 kb/s
Encoded date : UTC 2007-11-01 05:25:03.334

Video
ID : 2
Format : VC-1
Format profile : MP@ML
Codec ID : WMV3
Codec ID/Info : Windows Media Video 9
Codec ID/Hint : WMV3
Description of the codec : Windows Media Video 9
Duration : 1 h 27 min
Bit rate mode : Constant
Bit rate : 1 975 kb/s
Width : 640 pixels
Height : 480 pixels
Display aspect ratio : 4:3
Frame rate : 29.970 (29970/1000) FPS
Color space : YUV
Chroma subsampling : 4:2:0
Bit depth : 8 bits
Scan type : Progressive
Compression mode : Lossy
Bits/(Pixel*Frame) : 0.215
Stream size : 1.21 GiB (96%)
Language : English (United States)

Audio
ID : 1
Format : WMA
Format version : Version 2
Codec ID : 161
Codec ID/Info : Windows Media Audio
Description of the codec : Windows Media Audio 9.2 - 64 kbps, 48 kHz, stereo (A/V) 1-pass CBR
Duration : 1 h 27 min
Bit rate mode : Constant
Bit rate : 64.0 kb/s
Channel(s) : 2 channels
Sampling rate : 48.0 kHz
Bit depth : 16 bits
Stream size : 40.2 MiB (3%)
Language : English (United States)

[/spoier]


Трекер:  [ 14-Фев-2017 10:30 ]

  

Скачать .torrent

Размер .torrent файла 13 KB


Размер: 1.26 GB
Хэш (hash) релиза: c0b8b72e778890478648329cbeee73024d92d9ff

Еще никто не оставлял запись к записи скачать торрент Fever Pitch Ажиотаж . Будь первым!

!Обратная связь