Скачать порно через торрент Young & Notorious Молодой & Опасный UnionPeer.org бесплатно онлайн HD качество

Скачать новое порно 2015, 2014 новинки через торрент UnionPeer.org

Порно торрент бесплатно ЮнионПир.орг

Если у вас наблюдаются проблемы со скриншотами, переходом по ссылками, скачиванием торрентов - проблемы в блокировщике рекламы AdBlock. #хорошегоДня!


Статистика раздачи
Размер:  1.5 GB   |    Зарегистрирован:  8 месяцев   |    .torrent скачан:  40 раз   |   
Раздают:  1  
   
Загрузка...
 
Автор Сообщение

Galfimbul

avatar Galfimbul



Young & Notorious
Молодой & Опасный

Год производства:
1989 г.
Страна:
US
Жанр:
Oral,Anal Sex
Продолжительность:
01:20:44
Студия:
Dynamic Productions / Mack Studios
В ролях:
Bob Lowe, Danny Bliss, Devin Davenport, Josh Taylor, Karl Thomas, Marc Saber, Mark Andrews, Rock Hardon, Sonny Listz
Описание:
Detective Marc Saber interrogates Karl Thomas about the huslters who live with him.
Качество видео:
VHSRip
Формат видео:
AVI
Видео:
AVC,1024 pixels x 576 pixels,27.952 FPS,2329 kb/s
Аудио:
MPEG Audio,44.1 kHz,Lossy,320 kb/s
Format : AVI
Format/Info : Audio Video Interleave
Format profile : OpenDML
File size : 1.50 GiB
Duration : 1 h 20 min
Overall bit rate : 2 663 kb/s

Video
ID : 0
Format : AVC
Format/Info : Advanced Video Codec
Format profile : High@L3
Format settings, CABAC : Yes
Format settings, ReFrames : 3 frames
Codec ID : H264
Duration : 1 h 20 min
Bit rate : 2 329 kb/s
Width : 1 024 pixels
Height : 576 pixels
Display aspect ratio : 16:9
Frame rate mode : Variable
Frame rate : 27.952 FPS
Color space : YUV
Chroma subsampling : 4:2:0
Bit depth : 8 bits
Scan type : Progressive
Bits/(Pixel*Frame) : 0.141
Stream size : 1.31 GiB (87%)
Writing library : x264 core 142 r2455 021c0dc
Encoding settings : cabac=1 / ref=3 / deblock=1:0:0 / analyse=0x3:0x113 / me=hex / subme=7 / psy=1 / psy_rd=1.00:0.00 / mixed_ref=1 / me_range=16 / chroma_me=1 / trellis=1 / 8x8dct=1 / cqm=0 / deadzone=21,11 / fast_pskip=1 / chroma_qp_offset=-4 / threads=4 / lookahead_threads=1 / sliced_threads=0 / nr=0 / decimate=1 / interlaced=0 / bluray_compat=0 / constrained_intra=0 / bframes=0 / weightp=2 / keyint=250 / keyint_min=25 / scenecut=40 / intra_refresh=0 / rc_lookahead=0 / rc=crf / mbtree=0 / crf=23.0 / qcomp=0.60 / qpmin=4 / qpmax=69 / qpstep=4 / vbv_maxrate=12500 / vbv_bufsize=12500 / crf_max=0.0 / nal_hrd=none / filler=0 / ip_ratio=1.40 / aq=1:1.00

Audio
ID : 1
Format : MPEG Audio
Format version : Version 1
Format profile : Layer 3
Mode : Joint stereo
Mode extension : MS Stereo
Codec ID : 55
Codec ID/Hint : MP3
Duration : 1 h 20 min
Bit rate mode : Constant
Bit rate : 320 kb/s
Channel(s) : 2 channels
Sampling rate : 44.1 kHz
Compression mode : Lossy
Stream size : 185 MiB (12%)
Alignment : Split accross interleaves
Interleave, duration : 26 ms (0.73 video frame)
Writing library : LAME3.97

[/spoier]


Трекер:  [ 13-Фев-2017 21:30 ]

  

Скачать .torrent

Размер .torrent файла 15 KB


Размер: 1.5 GB
Хэш (hash) релиза: 6c4f53c0a47a44855a2690d8cc88afc9ba074cca

Еще никто не оставлял запись к записи скачать торрент Young & Notorious Молодой & Опасный . Будь первым!

!Обратная связь