Скачать через торрент Притяжение Фильм бесплатно в хорошем качестве torrent

Скачивайте на UnionPeer.org фильмы через торрент без регистрации. Новинки кино в хорошем качестве через торрент. На UnionPeer.org можно скачать через торрент фильмы 2014 и 2015 годов. Самые новые фильмы.

Скачать торрент Притяжение бесплатно через .torrent фильм мультфильм сериал

Статистика раздачи
Размер:  3.41 GB   |    Зарегистрирован:  13 дней   |    .torrent скачан:  2148 раз   |   
Раздают:  205   Качают:  20  
   
 
Автор Сообщение

Galfimbul

avatar Galfimbul




Притяжение / Prityazhenie
«Земля - землянам!»
Год выпуска: 2017
Страна: Россия
Жанр: фантастика
Продолжительность: 02:02:35
Перевод: Не требуется
Субтитры: Нет
Режиссер: Фёдор Бондарчук
Сценарий: Олег Маловичко, Андрей Золотарев
Продюсер: Фёдор Бондарчук, Дмитрий Рудовский, Михаил Врубель
Оператор: Михаил Хасая
Композитор: Иван Бурляев
Художник: Жанна Пахомова
В ролях: Ирина Старшенбаум , Александр Петров , Риналь Мухаметов , Олег Меньшиков , Евгений Сангаджиев , Алексей Маслодудов , Никита Кукушкин , Евгений Михеев , Антон Шпиньков , Евгений Коряковский (учитель), Дарья Руденок , Людмила Максакова

Описание: …Как только что стало известно, сбитый над Москвой неопознанный объект имеет, возможно, внеземное происхождение. Большая часть столичного Чертанова оцеплена, к месту крушения стягиваются представители силовых структур, решается вопрос об эвакуации местных жителей. По словам нашего источника в Минобороны, сейчас специальная комиссия пытается вступить в контакт с так называемыми «гостями». В эти минуты мы готовим экстренный выпуск новостей и о развитии событий вы узнаете первыми…
Качество: TeleSynch *PROPER*
Формат: MKV
Видео кодек: AVC
Аудио кодеk: AC3
Видео: 720x304 (2.35:1), 29.970 fps, AVC, 3 600 Kbps
Аудио: Аудио #1: AC3, 384 Kbps, 48.0 KHz, 2 ch [Rus]


Код: copyText_writeLink('this.parentNode.parentNode.nextSibling.nextSibling');

Код:

Video
 ID  : 1
 Format   : AVC
 Format/Info  : Advanced Video Codec
 Format profile   : High@L4.1
 Format settings, CABAC : Yes
 Format settings, ReFrames : 4 frames
 Codec ID    : V_MPEG4/ISO/AVC
 Duration    : 2h 2mn
 Bit rate    : 3 600 Kbps
 Width   : 720 pixels
 Height   : 304 pixels
 Display aspect ratio  : 2.35:1
 Frame rate mode  : Constant
 Frame rate   : 29.970 fps
 Color space  : YUV
 Chroma subsampling : 4:2:0
 Bit depth   : 8 bits
 Scan type   : Progressive
 Bits/(Pixel*Frame) : 0.549
 Stream size  : 3.02 GiB (88%)
 Default    : Yes
 Forced   : No
 DURATION    : 02:02:35.014000000
 Audio
 ID  : 2
 Format   : AC-3
 Format/Info  : Audio Coding 3
 Mode extension   : CM (complete main)
 Format settings, Endianness   : Big
 Codec ID    : A_AC3
 Duration    : 2h 2mn
 Bit rate mode   : Constant
 Bit rate    : 384 Kbps
 Channel(s)   : 2 channels
 Channel positions : Front: L R
 Sampling rate   : 48.0 KHz
 Bit depth   : 16 bits
 Compression mode  : Lossy
 Stream size  : 337 MiB (10%)
 Default    : Yes
 Forced   : No
 DURATION    : 02:02:35.040000000

Знаете ли Вы, что...
» Съемки проходили под знаком строгой секретности в разных районах Москвы, в том числе на объектах Министерства обороны с участием новейшей военной техники российских вооруженных сил.
» Фильм вышел в кинотеатральный прокат одновременно в России и в Китае.

Доп. информация
Бюджет: 380 000 000 руб.
Премьера (мир): 26 января 2017
Премьера (РФ): 26 января 2017




Трекер:  [ 13-Фев-2017 09:30 ]

  

Скачать .torrent

Размер .torrent файла 17 KB


Размер: 3.41 GB
Хэш (hash) релиза: 72b58b4677323744ec860c811e5495f80fa3f519
Подписка на обновления:

Торренты, похожие на Притяжение скачать торрент

Форум Название Автор Размер S L Добавлен
Российские фильмы 2016-2017 (Новинки русского кино) ·· Притяжение (Фёдор Бондарчук) [2017 г., Фантастика, TS-AVC] Galfimbul 15712404911.46 GB 8 0 1485535367

19:42

27-Янв-17

Российские фильмы 2016-2017 (Новинки русского кино) ·· Притяжение (Фёдор Бондарчук) [2017, Фантастика, CAMRip] Galfimbul 22047252482.05 GB 24 0 1485491962

07:39

27-Янв-17

Российские фильмы 2016-2017 (Новинки русского кино) ·· Притяжение (Фёдор Бондарчук) [2017, Фантастика, TS] Galfimbul 14672220161.37 GB 13 0 1485473044

02:24

27-Янв-17

Документальные фильмы и телепередачи ·· Лиля Брик. Максимальное притяжение (Валерий Рокотов) [2007, Россия, документальный, биографический, SATRip-AVC] Galfimbul 781226655745 MB 0 0 1483641307

21:35

5-Янв-17

Трейлеры и дополнительные материалы ·· Притяжение (Фёдор Бондарчук) [2017, фантастика, HDRip-1080p] Трейлер Galfimbul 6740179164 MB 0 0 1476194152

16:55

11-Окт-16

Документальные фильмы и телепередачи ·· Притяжения Альберта Вейника (Ксения Бахарева) [ Россия, Республика Беларусь, 2012, Документальный, DVB-AVC] Galfimbul 922789816880 MB 0 0 1453396968

20:22

21-Янв-16

Документальные фильмы и телепередачи ·· Рудольф Нуриев (Нуреев). Небесное притяжение / Rudolf Nureyev: Celestial Attraction (Соня Парамо / Sonia Paramo / Sonia Páramo) [2008, документальный, биография, DVB] DVO (Первый канал) damien1990 16218453301.51 GB 0 0 1363649196

02:26

19-Мар-13

Видео для Консолей ·· [SERIAL4PSP] Притяжению вопреки / Defying Gravity (James D. Parriott)[1 сезон][13 серий][LostFilm] [2009 г., драма, фантастика, DVDRip] _N_ 30801730192.87 GB 0 0 1342419600

09:20

16-Июл-12

Российские фильмы до 2016 ·· Притяжение (Антон Азаров) [2009 г., Триллер, мелодрама, DVDRip] Sabin 14684610561.37 GB 0 0 1290721939

00:52

26-Ноя-10

Еще никто не оставлял запись к записи скачать торрент Притяжение . Будь первым!

!Обратная связь