Скачать через торрент Взрывная волна Серии: 1-2 из 2 Фильм бесплатно в хорошем качестве torrent

Скачивайте на UnionPeer.org фильмы через торрент без регистрации. Новинки кино в хорошем качестве через торрент. На UnionPeer.org можно скачать через торрент фильмы 2014 и 2015 годов. Самые новые фильмы.

Скачать торрент Взрывная волна Серии: 1-2 из 2 бесплатно через .torrent фильм мультфильм сериал

Если у вас наблюдаются проблемы со скриншотами, переходом по ссылками, скачиванием торрентов - проблемы в блокировщике рекламы AdBlock. #хорошегоДня!


Статистика раздачи
Размер:  1.35 GB   |    Зарегистрирован:  5 месяцев 8 дней   |    .torrent скачан:  131 раз   |   
Раздают:  1  
   
Загрузка...
 
Автор Сообщение

Galfimbul

avatar Galfimbul


Взрывная волна


Год выпуска: 2016
Производство:Россия, «Творческое Объединение КЕДР»
Жанр: детектив
Продолжительность: 00:51:00
Субтитры: нет


Режиссёр: Георгий Гаврилов


В ролях:Анатолий Белый, Дмитрий Мазуров, Дмитрий Ратомский, Тарас Кузьмин, Тимур Ефременков, Евгений Березовский, Алёна Бабенко, Василий Мищенко


Описание: Неуловимая банда похитила известных предпринимателей одного за другим, после чего сделала им «предложение, от которого нельзя отказаться»: на шеях жертв закрепили ошейники, внутри которых взрывчатка. Если бизнесмен не принесет бандитам выкуп за свою жизнь — прогремит взрыв. Найти и обезоружить банду террористов поручили одному из лучших сотрудников УВД Денису Брунову. Он хотел отказаться от дела из-за личных проблем. Но когда преступники надели на него стальной капкан, его жизнь изменилась…


<a href="tracker.php?f=9&nm=Взрывная%20волна" class="postLink">[b]Все раздачи сериала[/b]</a>




Релиз от:



Качество: SATRip-AVC
Формат: MKV
Видео кодек: H.264
Аудио кодек: AC3
Видео: MPEG4 Video (H264), 720x400, 25fps,1700 Kbps,bit/pixel 0.236
Аудио: AC3 48000Hz, stereo, 192kbps,2 ch


Общее
Уникальный идентификатор : 174453760562036721531433224439503719293 (0x833E92779E6CC1C1839D5C6141AF0B7D)
Полное имя : I:\Взрывная волна\01 серия_Взрывная волна_rip by_Aleksan55.mkv
Формат : Matroska
Версия формата : Version 2
Размер файла : 694 Мбайт
Продолжительность : 51 м. 14 с.
Общий поток : 1894 Кбит/сек
Дата кодирования : UTC 2017-02-12 17:53:39
Программа кодирования : mkvmerge v7.8.0 ('River Man') 32bit built on Apr 3 2015 12:11:22
Библиотека кодирования : libebml v1.3.1 + libmatroska v1.4.2

Видео
Идентификатор : 1
Формат : AVC
Формат/Информация : Advanced Video Codec
Профиль формата : High@L4.1
Параметр CABAC формата : Да
Параметр ReFrames формата : 14 кадров
Идентификатор кодека : V_MPEG4/ISO/AVC
Продолжительность : 51 м. 14 с.
Битрейт : 1700 Кбит/сек
Ширина : 720 пикселей
Высота : 400 пикселей
Соотношение сторон : 16:9
Режим частоты кадров : Постоянный
Частота кадров : 25,000 кадров/сек
Цветовое пространство : YUV
Субдискретизация насыщенности : 4:2:0
Битовая глубина : 8 бит
Тип развёртки : Прогрессивная
Бит/(Пиксели*Кадры) : 0.236
Размер потока : 610 Мбайт (88%)
Библиотека кодирования : x264 core 148 r2638 7599210
Настройки программы : cabac=1 / ref=14 / deblock=1:-1:-1 / analyse=0x3:0x133 / me=umh / subme=9 / psy=1 / psy_rd=1.00:0.15 / mixed_ref=0 / me_range=32 / chroma_me=1 / trellis=2 / 8x8dct=1 / cqm=0 / deadzone=21,11 / fast_pskip=0 / chroma_qp_offset=-3 / threads=3 / lookahead_threads=3 / sliced_threads=0 / nr=0 / decimate=0 / interlaced=0 / bluray_compat=0 / constrained_intra=0 / bframes=14 / b_pyramid=2 / b_adapt=1 / b_bias=0 / direct=3 / weightb=1 / open_gop=0 / weightp=2 / keyint=250 / keyint_min=25 / scenecut=40 / intra_refresh=0 / rc_lookahead=40 / rc=2pass / mbtree=1 / bitrate=1700 / ratetol=1.0 / qcomp=0.80 / qpmin=0 / qpmax=40 / qpstep=4 / cplxblur=20.0 / qblur=0.5 / ip_ratio=1.10 / aq=1:1.20
Default : Да
Forced : Нет
Цветовой диапазон : Limited
Основные цвета : BT.601 PAL
Характеристики трансфера : BT.470 System B, BT.470 System G
Коэффициенты матрицы : BT.601

Аудио
Идентификатор : 2
Формат : AC-3
Формат/Информация : Audio Coding 3
Расширение режима : CM (complete main)
Параметр Endianness формата : Big
Идентификатор кодека : A_AC3
Продолжительность : 51 м. 14 с.
Вид битрейта : Постоянный
Битрейт : 192 Кбит/сек
Каналы : 2 канала
Расположение каналов : Front: L R
Частота : 48,0 КГц
Частота кадров : 31,250 кадров/сек (1536 spf)
Битовая глубина : 16 бит
Метод сжатия : С потерями
Размер потока : 70,4 Мбайт (10%)
Default : Да
Forced : Нет
<div class="clear" style="height: 8px;"></div>

Трекер:  [ 13-Фев-2017 00:00 ]

  

Скачать .torrent

Размер .torrent файла 14 KB


Размер: 1.35 GB
Хэш (hash) релиза: 12c0f509a6d8872015f5de4a3b91716d28b688e3
Подписка на обновления:

Торренты, похожие на Взрывная волна Серии: 1-2 из 2 скачать торрент

Форум Название Автор Размер S L Добавлен
Российские сериалы ·· Взрывная волна / Серии: 1-2 из 2 (Георгий Гаврилов) [2016, Детектив, HDTVRip] Galfimbul 12584816641.17 GB 0 0 1487021499

00:31

14-Фев-17

Еще никто не оставлял запись к записи скачать торрент Взрывная волна Серии: 1-2 из 2 . Будь первым!

!Обратная связь