Скачать порно через торрент "У меня стояк сосков жёсткий" UnionPeer.org бесплатно онлайн HD качество

Скачать новое порно 2015, 2014 новинки через торрент UnionPeer.org

Порно торрент бесплатно ЮнионПир.орг

Если у вас наблюдаются проблемы со скриншотами, переходом по ссылками, скачиванием торрентов - проблемы в блокировщике рекламы AdBlock. #хорошегоДня!


Статистика раздачи
Размер:  285 MB   |    Зарегистрирован:  6 месяцев   |    .torrent скачан:  2495 раз   |   
Раздают:  3  
   
Загрузка...
 
Автор Сообщение

Galfimbul

avatar Galfimbul


"У меня стояк сосков жёсткий"

Год производства: 2017 г.
Жанр: Homemade, Russian, Anal.
Продолжительность: 00:09:49

Описание: «Диана» выгуливает новые сиськи.
И попутно выступает с жесточайшей критикой реформ ЖКХ и благодарственным словом к капусте, благотворно повлиявшей на размер, форму и чувствительность ея грудёв. А «Вася» между тем попыхивает паром… вейпер-аналюга.
Забавен ролик ещё и тем, что четыре минуты другу с подругою никак не пристроить мпх. Такое впечатление, что доблестные хирурги ей вместе с увеличением груди уменьшили анал. Подзашили-подзаштопали… Пацан пыжится, силится, хорохорится, но девичий, девчачий, дифчячий анал будто твёрдо решил встать на путь исправления: ни на пол-шишечки, ни до третьей фаланги - вррраг не пррройдёт! И бедный «Вася» теперь и так, и этак, и враскоряк, и в развоттаквот, ан всё нейдёт.
Но зато уж когда вошё-о-о-ол… Всё как в раньшие-добрые времена: и скорость, и амплитуда, со свистом и пОсвистом, под скрип сфинктера и причитания «Дианы», известные по прошлогодним роликам: мат-перемат, блядь на бляди сидит и сукой погоняет.
Всё как мы любим.
А ещё чулочки и сосочки. Приятного просмотра.
Щисливых дрочений, собратья и сосёстры. И почаще вам разгульных и оголтелых трахов!

Доп. информация: За предоставленный материал и описание огромный респект нашему ёлкопалкину !
Ещё с ними -
[url]...2178609[/url] DearDianVasya - Натягивай! За волосы возьми меня!
[url]...2185719[/url] [bongacams] Где-то, за гаражами....
[url]...2186436[/url] [Bongacams.com] Давай пожестче!!!

Тип HD видео: 720p
Формат видео: AVI
General
Format : AVI
Format/Info : Audio Video Interleave
File size : 285 MiB
Duration : 9mn 49s
Overall bit rate : 4 050 Kbps
Writing application : MEncoder SVN-r33883(20110719-gcc4.5.2)
Writing library : MPlayer
Video #0
ID : 0
Format : MPEG-4 Visual
Format profile : Advanced Simple@L5
Format settings, BVOP : 2
Format settings, QPel : No
Format settings, GMC : No warppoints
Format settings, Matrix : Default (H.263)
Codec ID : XVID
Codec ID/Hint : XviD
Duration : 9mn 49s
Bit rate : 3 905 Kbps
Width : 1 280 pixels
Height : 720 pixels
Display aspect ratio : 16:9
Frame rate : 48.880 fps
Color space : YUV
Chroma subsampling : 4:2:0
Bit depth : 8 bits
Scan type : Progressive
Compression mode : Lossy
Bits/(Pixel*Frame) : 0.087
Stream size : 275 MiB (96%)
Writing library : XviD 1.2.1 (UTC 2008-12-04)
Audio #1
ID : 1
Format : MPEG Audio
Format version : Version 1
Format profile : Layer 3
Mode : Joint stereo
Mode extension : MS Stereo
Codec ID : 55
Codec ID/Hint : MP3
Duration : 9mn 49s
Bit rate mode : Constant
Bit rate : 128 Kbps
Channel(s) : 2 channels
Sampling rate : 44.1 KHz
Compression mode : Lossy
Delay relative to video : 20ms
Stream size : 9.00 MiB (3%)
Alignment : Aligned on interleaves
Interleave, duration : 26 ms (1.28 video frame)
Interleave, preload duration : 522 ms
Writing library : LAME3.98.4


Трекер:  [ 12-Фев-2017 12:30 ]

  

Скачать .torrent

Размер .torrent файла 11 KB


Размер: 285 MB
Хэш (hash) релиза: ac09341727b5e935e4165e11520daef9db12bcae

Еще никто не оставлял запись к записи скачать торрент "У меня стояк сосков жёсткий" . Будь первым!

!Обратная связь