Скачать через торрент музыку На пятьдесят оттенков темнее Fifty Shades Darker бесплатно без регистрации torrent

Если у вас наблюдаются проблемы со скриншотами, переходом по ссылками, скачиванием торрентов - проблемы в блокировщике рекламы AdBlock. #хорошегоДня!


Статистика раздачи
Размер:  418 MB   |    Зарегистрирован:  7 месяцев   |    .torrent скачан:  16 раз   |   
Раздают:  1  
   
Загрузка...
 
Автор Сообщение

Galfimbul

avatar Galfimbul


На пятьдесят оттенков темнее / Fifty Shades Darker

Название альбома: Fifty Shades Darker
Жанр: Soundtrack
Композитор: VA
Год выпуска диска: 2017
Год выпуска фильма: 2017
Производитель диска: US
Издатель (лейбл): Republic Records
Номер по каталогу: 00602557372571
Аудиокодек: FLAC
Тип рипа: tracks+.cue
Битрейт аудио: lossless
Продолжительность: 01:04:04
Источник: Filex
Наличие сканов в содержимом раздачи: да (только обложки)
01. <span class="post-font-sans1">ZAYN & Taylor Swift - I Don't Wanna Live Forever (Fifty Shades Darker)</span> (4:07)
02. <span class="post-font-sans1">Halsey - Not Afraid Anymore</span> (3:47)
03. <span class="post-font-sans1">JRY (feat. Rooty) - Pray</span> (3:22)
04. <span class="post-font-sans1">Tove Lo - Lies in the Dark</span> (3:42)
05. <span class="post-font-sans1">Toulouse - No Running from Me</span> (3:12)
06. <span class="post-font-sans1">John Legend - One Woman Man</span> (4:06)
07. <span class="post-font-sans1">The-Dream - Code Blue</span> (4:46)
08. <span class="post-font-sans1">Nick Jonas & Nicki Minaj - Bom Bidi Bom</span> (3:36)
09. <span class="post-font-sans1">Sia - Helium</span> (4:14)
10. <span class="post-font-sans1">Kygo (feat. Andrew Jackson) - Cruise</span> (3:46)
11. <span class="post-font-sans1">Corinne Bailey Rae - The Scientist</span> (3:17)
12. <span class="post-font-sans1">Jose James - They Can't Take That Away from Me</span> (2:07)
13. <span class="post-font-sans1">JP Cooper - Birthday</span> (3:23)
14. <span class="post-font-sans1">The Avener (feat. Mark Asari) - I Need a Good One</span> (3:49)
15. <span class="post-font-sans1">Joseph Angel - Empty Pack of Cigarettes</span> (3:53)
16. <span class="post-font-sans1">Anderson East - What Would It Take</span> (4:01)
17. <span class="post-font-sans1">Frances - What Is Love?</span> (4:09)
18. <span class="post-font-sans1">Danny Elfman - On His Knees</span> (2:52)
19. <span class="post-font-sans1">Danny Elfman - Making It Real</span> (2:09)
Exact Audio Copy V1.3 from 2. September 2016

EAC extraction logfile from 10. February 2017, 13:19

Various Artists / Fifty Shades Darker

Used drive : PLEXTOR CD-R PX-230A Adapter: 1 ID: 0

Read mode : SecureUtilize accurate stream : YesDefeat audio cache : YesMake use of C2 pointers : No

Read offset correction : 738Overread into Lead-In and Lead-Out : NoFill up missing offset samples with silence : YesDelete leading and trailing silent blocks : NoNull samples used in CRC calculations : YesUsed interface : Native Win32 interface for Win NT & 2000Gap handling : Appended to previous track

Used output format : User Defined EncoderSelected bitrate : 1024 kBit/sQuality : HighAdd ID3 tag : NoCommand line compressor : C:\Program Files\Exact Audio Copy\Flac\flac.exeAdditional command line options : -6 -V -T "ARTIST=%artist%" -T "TITLE=%title%" -T "ALBUM=%albumtitle%" -T "DATE=%year%" -T "TRACKNUMBER=%tracknr%" -T "GENRE=%genre%" -T "COMMENT=%comment%" -T "ALBUMARTIST=%albuminterpret%" -T "COMPOSER=%composer%" -T "DISCNUMBER=%cdnumber%" -T "TOTALDISCS=%totalcds%" -T "TOTALTRACKS=%numtracks%" %source% -o %dest%

TOC of the extracted CD

Track | Start | Length | Start sector | End sector --------------------------------------------------------- 1 | 0:00.00 | 4:06.56 | 0 | 18505 2 | 4:06.56 | 3:47.07 | 18506 | 35537 3 | 7:53.63 | 3:21.38 | 35538 | 50650 4 | 11:15.26 | 3:42.25 | 50651 | 67325 5 | 14:57.51 | 3:12.10 | 67326 | 81735 6 | 18:09.61 | 4:06.00 | 81736 | 100185 7 | 22:15.61 | 4:45.40 | 100186 | 121600 8 | 27:01.26 | 3:36.29 | 121601 | 137829 9 | 30:37.55 | 4:14.22 | 137830 | 156901 10 | 34:52.02 | 3:45.58 | 156902 | 173834 11 | 38:37.60 | 3:17.01 | 173835 | 188610 12 | 41:54.61 | 2:06.54 | 188611 | 198114 13 | 44:01.40 | 3:22.63 | 198115 | 213327 14 | 47:24.28 | 3:48.74 | 213328 | 230501 15 | 51:13.27 | 3:52.51 | 230502 | 247952 16 | 55:06.03 | 4:00.62 | 247953 | 266014 17 | 59:06.65 | 4:09.25 | 266015 | 284714 18 | 63:16.15 | 2:51.57 | 284715 | 297596 19 | 66:07.72 | 2:08.41 | 297597 | 307237

Track 1

Filename C:\Music\FX\01 - ZAYN & Taylor Swift - I Don't Wanna Live Forever (Fifty Shades Darker).wav

Pre-gap length 0:00:02.00

Peak level 99.8 % Extraction speed 2.9 X Track quality 100.0 % Test CRC CA3DDFC0 Copy CRC CA3DDFC0 Track not present in AccurateRip database Copy OK

Track 2

Filename C:\Music\FX\02 - Halsey - Not Afraid Anymore.wav

Pre-gap length 0:00:01.07

Peak level 99.8 % Extraction speed 2.7 X Track quality 99.9 % Test CRC 033A7CF0 Copy CRC 033A7CF0 Track not present in AccurateRip database Copy OK

Track 3

Filename C:\Music\FX\03 - JRY (feat. Rooty) - Pray.wav

Pre-gap length 0:00:00.23

Peak level 98.8 % Extraction speed 2.5 X Track quality 99.9 % Test CRC 4368237C Copy CRC 4368237C Track not present in AccurateRip database Copy OK

Track 4

Filename C:\Music\FX\04 - Tove Lo - Lies in the Dark.wav

Pre-gap length 0:00:00.52

Peak level 98.8 % Extraction speed 2.7 X Track quality 100.0 % Test CRC 6C85952D Copy CRC 6C85952D Track not present in AccurateRip database Copy OK

Track 5

Filename C:\Music\FX\05 - Toulouse - No Running from Me.wav

Pre-gap length 0:00:00.67

Peak level 98.8 % Extraction speed 3.0 X Track quality 100.0 % Test CRC 1A819FF8 Copy CRC 1A819FF8 Track not present in AccurateRip database Copy OK

Track 6

Filename C:\Music\FX\06 - John Legend - One Woman Man.wav

Pre-gap length 0:00:00.11

Peak level 98.8 % Extraction speed 2.6 X Track quality 99.9 % Test CRC 43D60A51 Copy CRC 43D60A51 Track not present in AccurateRip database Copy OK

Track 7

Filename C:\Music\FX\07 - The-Dream - Code Blue.wav

Pre-gap length 0:00:01.33

Peak level 98.5 % Extraction speed 2.6 X Track quality 99.9 % Test CRC 9C8A3BAD Copy CRC 9C8A3BAD Track not present in AccurateRip database Copy OK

Track 8

Filename C:\Music\FX\08 - Nick Jonas & Nicki Minaj - Bom Bidi Bom.wav

Pre-gap length 0:00:00.35

Peak level 98.8 % Extraction speed 2.9 X Track quality 100.0 % Test CRC 3AE76252 Copy CRC 3AE76252 Track not present in AccurateRip database Copy OK

Track 9

Filename C:\Music\FX\09 - Sia - Helium.wav

Pre-gap length 0:00:01.46

Peak level 95.2 % Extraction speed 2.6 X Track quality 99.9 % Test CRC CF683307 Copy CRC CF683307 Track not present in AccurateRip database Copy OK

Track 10

Filename C:\Music\FX\10 - Kygo (feat. Andrew Jackson) - Cruise.wav

Pre-gap length 0:00:01.74

Peak level 92.0 % Extraction speed 2.5 X Track quality 99.9 % Test CRC A973500F Copy CRC A973500F Track not present in AccurateRip database Copy OK

Track 11

Filename C:\Music\FX\11 - Corinne Bailey Rae - The Scientist.wav

Pre-gap length 0:00:01.34

Peak level 97.3 % Extraction speed 2.9 X Track quality 100.0 % Test CRC B019E0EB Copy CRC B019E0EB Track not present in AccurateRip database Copy OK

Track 12

Filename C:\Music\FX\12 - José James - They Can't Take That Away from Me.wav

Pre-gap length 0:00:00.74

Peak level 98.8 % Extraction speed 2.5 X Track quality 100.0 % Test CRC B5E2FDEC Copy CRC B5E2FDEC Track not present in AccurateRip database Copy OK

Track 13

Filename C:\Music\FX\13 - JP Cooper - Birthday.wav

Pre-gap length 0:00:01.56

Peak level 93.4 % Extraction speed 2.5 X Track quality 99.9 % Test CRC 9EFDC0E7 Copy CRC 9EFDC0E7 Track not present in AccurateRip database Copy OK

Track 14

Filename C:\Music\FX\14 - The Avener (feat. Mark Asari) - I Need a Good One.wav

Pre-gap length 0:00:01.05

Peak level 97.2 % Extraction speed 2.8 X Track quality 100.0 % Test CRC 15D1B7D5 Copy CRC 15D1B7D5 Track not present in AccurateRip database Copy OK

Track 15

Filename C:\Music\FX\15 - Joseph Angel - Empty Pack of Cigarettes.wav

Pre-gap length 0:00:00.63

Peak level 97.1 % Extraction speed 2.7 X Track quality 100.0 % Test CRC 367ABB64 Copy CRC 367ABB64 Track not present in AccurateRip database Copy OK

Track 16

Filename C:\Music\FX\16 - Anderson East - What Would It Take.wav

Pre-gap length 0:00:01.22

Peak level 98.8 % Extraction speed 2.6 X Track quality 100.0 % Test CRC B28C83D3 Copy CRC B28C83D3 Track not present in AccurateRip database Copy OK

Track 17

Filename C:\Music\FX\17 - Frances - What Is Love.wav

Pre-gap length 0:00:01.30

Peak level 98.1 % Extraction speed 2.6 X Track quality 99.9 % Test CRC 815300D0 Copy CRC 815300D0 Track not present in AccurateRip database Copy OK

Track 18

Filename C:\Music\FX\18 - Danny Elfman - On His Knees.wav

Pre-gap length 0:00:01.59

Peak level 94.4 % Extraction speed 2.5 X Track quality 100.0 % Test CRC D96B059F Copy CRC D96B059F Track not present in AccurateRip database Copy OK

Track 19

Filename C:\Music\FX\19 - Danny Elfman - Making It Real.wav

Pre-gap length 0:00:01.54

Peak level 94.4 % Extraction speed 2.4 X Track quality 100.0 % Test CRC D2A17C4F Copy CRC D2A17C4F Track not present in AccurateRip database Copy OK

None of the tracks are present in the AccurateRip database

No errors occurred

End of status report

---- CUETools DB Plugin V2.1.6

[CTDB TOCID: HPKeFesfxmJuGguMTd78MQQGq34-] disk not present in databaseSubmit result: HPKeFesfxmJuGguMTd78MQQGq34- has been uploaded

==== Log checksum 2AA2656B247952780F936C03575D1893F9166D5D442B76F028761FA086BA6CA5 ====
REM GENRE SoundtrackREM DATE 2017REM DISCID 3F100013REM COMMENT "ExactAudioCopy v1.3 - Release # FX-402"PERFORMER "Various Artists"TITLE "Fifty Shades Darker"FILE "01 - ZAYN & Taylor Swift - I Don't Wanna Live Forever.wav" WAVE TRACK 01 AUDIO TITLE "I Don't Wanna Live Forever (Fifty Shades Darker)" PERFORMER "ZAYN & Taylor Swift" INDEX 01 00:00:00 TRACK 02 AUDIO TITLE "Not Afraid Anymore" PERFORMER "Halsey" INDEX 00 04:05:49FILE "02 - Halsey - Not Afraid Anymore.wav" WAVE INDEX 01 00:00:00 TRACK 03 AUDIO TITLE "Pray" PERFORMER "JRY (feat. Rooty)" INDEX 00 03:46:59FILE "03 - JRY (feat. Rooty) - Pray.wav" WAVE INDEX 01 00:00:00 TRACK 04 AUDIO TITLE "Lies in the Dark" PERFORMER "Tove Lo" INDEX 00 03:20:61FILE "04 - Tove Lo - Lies in the Dark.wav" WAVE INDEX 01 00:00:00 TRACK 05 AUDIO TITLE "No Running from Me" PERFORMER "Toulouse" INDEX 00 03:41:33FILE "05 - Toulouse - No Running from Me.wav" WAVE INDEX 01 00:00:00 TRACK 06 AUDIO TITLE "One Woman Man" PERFORMER "John Legend" INDEX 00 03:11:74FILE "06 - John Legend - One Woman Man.wav" WAVE INDEX 01 00:00:00 TRACK 07 AUDIO TITLE "Code Blue" PERFORMER "The-Dream" INDEX 00 04:04:42FILE "07 - The-Dream - Code Blue.wav" WAVE INDEX 01 00:00:00 TRACK 08 AUDIO TITLE "Bom Bidi Bom" PERFORMER "Nick Jonas & Nicki Minaj" INDEX 00 04:45:05FILE "08 - Nick Jonas & Nicki Minaj - Bom Bidi Bom.wav" WAVE INDEX 01 00:00:00 TRACK 09 AUDIO TITLE "Helium" PERFORMER "Sia" INDEX 00 03:34:58FILE "09 - Sia - Helium.wav" WAVE INDEX 01 00:00:00 TRACK 10 AUDIO TITLE "Cruise" PERFORMER "Kygo (feat. Andrew Jackson)" INDEX 00 04:12:23FILE "10 - Kygo (feat. Andrew Jackson) - Cruise.wav" WAVE INDEX 01 00:00:00 TRACK 11 AUDIO TITLE "The Scientist" PERFORMER "Corinne Bailey Rae" INDEX 00 03:44:24FILE "11 - Corinne Bailey Rae - The Scientist.wav" WAVE INDEX 01 00:00:00 TRACK 12 AUDIO TITLE "They Can't Take That Away from Me" PERFORMER "Josй James" INDEX 00 03:16:02FILE "12 - Jose James - They Can't Take That Away from Me.wav" WAVE INDEX 01 00:00:00 TRACK 13 AUDIO TITLE "Birthday" PERFORMER "JP Cooper" INDEX 00 02:04:73FILE "13 - JP Cooper - Birthday.wav" WAVE INDEX 01 00:00:00 TRACK 14 AUDIO TITLE "I Need a Good One" PERFORMER "The Avener (feat. Mark Asari)" INDEX 00 03:21:58FILE "14 - The Avener (feat. Mark Asari) - I Need a Good One.wav" WAVE INDEX 01 00:00:00 TRACK 15 AUDIO TITLE "Empty Pack of Cigarettes" PERFORMER "Joseph Angel" INDEX 00 03:48:11FILE "15 - Joseph Angel - Empty Pack of Cigarettes.wav" WAVE INDEX 01 00:00:00 TRACK 16 AUDIO TITLE "What Would It Take" PERFORMER "Anderson East" INDEX 00 03:51:29FILE "16 - Anderson East - What Would It Take.wav" WAVE INDEX 01 00:00:00 TRACK 17 AUDIO TITLE "What Is Love?" PERFORMER "Frances" INDEX 00 03:59:32FILE "17 - Frances - What Is Love.wav" WAVE INDEX 01 00:00:00 TRACK 18 AUDIO TITLE "On His Knees" PERFORMER "Danny Elfman" REM COMPOSER "Danny Elfman" INDEX 00 04:07:41FILE "18 - Danny Elfman - On His Knees.wav" WAVE INDEX 01 00:00:00 TRACK 19 AUDIO TITLE "Making It Real" PERFORMER "Danny Elfman" REM COMPOSER "Danny Elfman" INDEX 00 02:50:03FILE "19 - Danny Elfman - Making It Real.wav" WAVE INDEX 01 00:00:00

<a href="viewtopic.php?t=5355084" class="postLink">mp3</a>

RG Soundtracks
<div class="clear" style="height: 8px;"></div>

Трекер:  [ 10-Фев-2017 18:30 ]

  

Скачать .torrent

Размер .torrent файла 18 KB


Размер: 418 MB
Хэш (hash) релиза: 494d60a88a89e01120e2fe822bbca2d6a962ef4a

Торренты, похожие на На пятьдесят оттенков темнее Fifty Shades Darker скачать торрент

Форум Название Автор Размер S L Добавлен
Саундтреки к фильмам и мультфильмам (lossless) ·· (Score) На пятьдесят оттенков темнее / Fifty Shades Darker (by Danny Elfman) - 2017, FLAC (tracks+.cue) lossless Galfimbul 201182337192 MB 0 0 1488216575

20:29

27-Фев-17

Саундтреки к фильмам и мультфильмам (mp3) ·· (Score) На пятьдесят оттенков темнее / Fifty Shades Darker (Danny Elfman) - 2017, MP3, 320 kbps Galfimbul 10261037298 MB 0 0 1487351619

20:13

17-Фев-17

Саундтреки к фильмам и мультфильмам (mp3) ·· (Soundtrack) На пятьдесят оттенков темнее / Fifty Shades Darker (Target Deluxe Edition) (VA) - 2017, MP3 (tracks) 320 kbps Galfimbul 194609457186 MB 0 0 1486882041

09:47

12-Фев-17

Саундтреки к фильмам и мультфильмам (lossless) ·· (Score/Soundtrack) На пятьдесят оттенков темнее / Fifty Shades Darker (Original Motion Picture Soundtrack) (VA) - 2017, FLAC [WEB] (tracks), lossless Galfimbul 439776415419 MB 0 0 1486716391

11:46

10-Фев-17

Саундтреки к фильмам и мультфильмам (mp3) ·· (Soundtrack) На пятьдесят оттенков темнее / Fifty Shades Darker (VA) - 2017, MP3 (tracks) 320 kbps Galfimbul 161982591154 MB 0 0 1486712212

10:36

10-Фев-17

Еще никто не оставлял запись к записи скачать торрент На пятьдесят оттенков темнее Fifty Shades Darker . Будь первым!

!Обратная связь