Скачать через торрент музыку Ночь демонов Night Of The Demons бесплатно без регистрации torrent

Если у вас наблюдаются проблемы со скриншотами, переходом по ссылками, скачиванием торрентов - проблемы в блокировщике рекламы AdBlock. #хорошегоДня!


Статистика раздачи
Размер:  341 MB   |    Зарегистрирован:  7 месяцев   |    .torrent скачан:  18 раз   |   
Раздают:  1  
   
Загрузка...
 
Автор Сообщение

Galfimbul

avatar Galfimbul


Ночь демонов / Night Of The Demons

Жанр: Score
Композитор: Dennis Michael Tenney
Год выпуска диска: 2015
Год выпуска фильма: 1988
Страна-производитель диска: USA
Издатель (лейбл): Lunaris Records
Номер по каталогу: LNRS002
Аудиокодек: FLAC (*.flac)
Тип рипа: tracks+.cue
Битрейт аудио: lossless
Продолжительность: 01:14:46
Источник: собственный рип
Наличие сканов в содержимом раздачи: Да

Треклист:
01. Night Of TheDemons Theme (3:24)
02. Suzie Hides The Lipstick (1:40)
03. The Burn (2:51)
04. Henry Jogs (3:51)
05. Jody Runs (1:45)
06. Roger Runs For The Car (2:12)
07. Suzie Strips (1:15)
08. Helen Eats The Windshield (2:28)
09. The Cue From Hell (7:45)
10. Computer Date (2:59)
11. Victims Of The Press (3:03)
12. The Beast Inside (3:51)
13. Hull House 101 (1:19)
14. Check This Out/Be A Man! (0:32)
15. The Séance/Coming Fom The Basement (2:22)
16. The Possession Suite (1:07)
17. Tall Tales/Suzie-Q, Where Are You? (2:48)
18. Dancing With The Devil (1:19)
19. Not A Bad Paint Job/Leaving So Soon? (1:56)
20. Prey Of The Demons/Soul Searching (2:14)
21. How About An Orgy?/Run Judy, Run! (1:17)
22. Nowhere To Go (3:49)
23. Left Right, Left Right! (1:11)
24. Fighting Back (1:12)
25. Escape/The End? (5:08)
26. Halloween Party FX 1 (3:44)
27. Halloween Party FX 2 (3:35)
28. Halloween Party FX 3 (3:10)

Просьба не уходить с раздачи.
X Lossless Decoder version 20141129a (148.2)

XLD extraction logfile from 2015-11-16 11:12:10 -0500

Dennis Michael Tenney / Night Of The Demons

Used drive : HL-DT-ST DVDRW GS31N (revision TA17)Media type : Pressed CD

Ripper mode : XLD Secure RipperDisable audio cache : OK for the drive with a cache less than 1375KiBMake use of C2 pointers : NORead offset correction : 667Max retry count : 20Gap status : Analyzed, Appended

TOC of the extracted CD Track | Start | Length | Start sector | End sector --------------------------------------------------------- 1 | 00:00:00 | 03:24:19 | 0 | 15318 2 | 03:24:19 | 01:39:70 | 15319 | 22813 3 | 05:04:14 | 02:51:18 | 22814 | 35656 4 | 07:55:32 | 03:50:68 | 35657 | 52974 5 | 11:46:25 | 01:44:60 | 52975 | 60834 6 | 13:31:10 | 02:12:27 | 60835 | 70761 7 | 15:43:37 | 01:15:23 | 70762 | 76409 8 | 16:58:60 | 02:28:05 | 76410 | 87514 9 | 19:26:65 | 07:44:49 | 87515 | 122363 10 | 27:11:39 | 02:58:45 | 122364 | 135758 11 | 30:10:09 | 03:02:38 | 135759 | 149446 12 | 33:12:47 | 03:50:52 | 149447 | 166748 13 | 37:03:24 | 01:19:06 | 166749 | 172679 14 | 38:22:30 | 00:31:67 | 172680 | 175071 15 | 38:54:22 | 02:21:63 | 175072 | 185709 16 | 41:16:10 | 01:06:59 | 185710 | 190718 17 | 42:22:69 | 02:47:51 | 190719 | 203294 18 | 45:10:45 | 01:19:25 | 203295 | 209244 19 | 46:29:70 | 01:56:11 | 209245 | 217955 20 | 48:26:06 | 02:13:52 | 217956 | 227982 21 | 50:39:58 | 01:16:57 | 227983 | 233739 22 | 51:56:40 | 03:48:71 | 233740 | 250910 23 | 55:45:36 | 01:11:08 | 250911 | 256243 24 | 56:56:44 | 02:12:72 | 256244 | 266215 25 | 59:09:41 | 05:07:43 | 266216 | 289283 26 | 64:17:09 | 03:43:57 | 289284 | 306065 27 | 68:00:66 | 03:35:14 | 306066 | 322204 28 | 71:36:05 | 03:10:06 | 322205 | 336460

AccurateRip Summary Disc not found in AccurateRip DB.

All Tracks Album gain : -9.32 dB Peak : 1.000000 Statistics Read error : 0 Jitter error (maybe fixed) : 0 Retry sector count : 0 Damaged sector count : 0

Track 01 Filename : /Users/Home/Music/Night Of The Demons/01 Night Of The Demons Theme.flac Pre-gap length : 00:02:00

Track gain : -9.59 dB Peak : 0.977234 CRC32 hash (test run) : CD8C06DD CRC32 hash : CD8C06DD CRC32 hash (skip zero) : 26EF4EF4 AccurateRip v1 signature : 4FC83F47 AccurateRip v2 signature : BC67AC9E ->Track not present in AccurateRip database. Statistics Read error : 0 Jitter error (maybe fixed) : 0 Retry sector count : 0 Damaged sector count : 0

Track 02 Filename : /Users/Home/Music/Night Of The Demons/02 Suzie Hides The Lipstick.flac Pre-gap length : 00:01:74

Track gain : -7.35 dB Peak : 0.977234 CRC32 hash (test run) : FF1FF112 CRC32 hash : FF1FF112 CRC32 hash (skip zero) : A2343F80 AccurateRip v1 signature : 62031734 AccurateRip v2 signature : 46571C83 ->Track not present in AccurateRip database. Statistics Read error : 0 Jitter error (maybe fixed) : 0 Retry sector count : 0 Damaged sector count : 0

Track 03 Filename : /Users/Home/Music/Night Of The Demons/03 The Burn.flac Pre-gap length : 00:01:74

Track gain : -6.25 dB Peak : 0.977234 CRC32 hash (test run) : 552C5A38 CRC32 hash : 552C5A38 CRC32 hash (skip zero) : 8250F466 AccurateRip v1 signature : A10149C1 AccurateRip v2 signature : 1B4B391A ->Track not present in AccurateRip database. Statistics Read error : 0 Jitter error (maybe fixed) : 0 Retry sector count : 0 Damaged sector count : 0

Track 04 Filename : /Users/Home/Music/Night Of The Demons/04 Henry Jogs.flac Pre-gap length : 00:01:74

Track gain : -6.99 dB Peak : 0.977234 CRC32 hash (test run) : EE068033 CRC32 hash : EE068033 CRC32 hash (skip zero) : 895681CF AccurateRip v1 signature : 66501EDE AccurateRip v2 signature : 2F263939 ->Track not present in AccurateRip database. Statistics Read error : 0 Jitter error (maybe fixed) : 0 Retry sector count : 0 Damaged sector count : 0

Track 05 Filename : /Users/Home/Music/Night Of The Demons/05 Judy Runs.flac Pre-gap length : 00:01:74

Track gain : -9.37 dB Peak : 0.977234 CRC32 hash (test run) : 52C4DFDA CRC32 hash : 52C4DFDA CRC32 hash (skip zero) : ED2C51F4 AccurateRip v1 signature : A5A88247 AccurateRip v2 signature : CCF36DC9 ->Track not present in AccurateRip database. Statistics Read error : 0 Jitter error (maybe fixed) : 0 Retry sector count : 0 Damaged sector count : 0

Track 06 Filename : /Users/Home/Music/Night Of The Demons/06 Roger Runs For The Car.flac Pre-gap length : 00:01:74

Track gain : -9.60 dB Peak : 0.977234 CRC32 hash (test run) : 386C3FA4 CRC32 hash : 386C3FA4 CRC32 hash (skip zero) : FDDD1023 AccurateRip v1 signature : 311BE6FF AccurateRip v2 signature : 3B038033 ->Track not present in AccurateRip database. Statistics Read error : 0 Jitter error (maybe fixed) : 0 Retry sector count : 0 Damaged sector count : 0

Track 07 Filename : /Users/Home/Music/Night Of The Demons/07 Suzie Strips.flac Pre-gap length : 00:01:74

Track gain : -9.21 dB Peak : 0.977234 CRC32 hash (test run) : D3D0721A CRC32 hash : D3D0721A CRC32 hash (skip zero) : 0A2B0763 AccurateRip v1 signature : 1D1E8205 AccurateRip v2 signature : 240E47E0 ->Track not present in AccurateRip database. Statistics Read error : 0 Jitter error (maybe fixed) : 0 Retry sector count : 0 Damaged sector count : 0

Track 08 Filename : /Users/Home/Music/Night Of The Demons/08 Helen Eats The Windshield.flac Pre-gap length : 00:01:74

Track gain : -7.48 dB Peak : 0.977234 CRC32 hash (test run) : 825A6AD0 CRC32 hash : 825A6AD0 CRC32 hash (skip zero) : 14F76350 AccurateRip v1 signature : 9040FDE7 AccurateRip v2 signature : 60BD331F ->Track not present in AccurateRip database. Statistics Read error : 0 Jitter error (maybe fixed) : 0 Retry sector count : 0 Damaged sector count : 0

Track 09 Filename : /Users/Home/Music/Night Of The Demons/09 The Cue From Hell.flac Pre-gap length : 00:01:74

Track gain : -9.29 dB Peak : 0.977234 CRC32 hash (test run) : B6CAA2FE CRC32 hash : B6CAA2FE CRC32 hash (skip zero) : F298AC9E AccurateRip v1 signature : 82B71C0F AccurateRip v2 signature : 621ED383 ->Track not present in AccurateRip database. Statistics Read error : 0 Jitter error (maybe fixed) : 0 Retry sector count : 0 Damaged sector count : 0

Track 10 Filename : /Users/Home/Music/Night Of The Demons/10 Computer Date.flac Pre-gap length : 00:01:69

Track gain : -11.70 dB Peak : 1.000000 CRC32 hash (test run) : 04EB35EA CRC32 hash : 04EB35EA CRC32 hash (skip zero) : 7696A6BF AccurateRip v1 signature : 38AADBCB AccurateRip v2 signature : F403C076 ->Track not present in AccurateRip database. Statistics Read error : 0 Jitter error (maybe fixed) : 0 Retry sector count : 0 Damaged sector count : 0

Track 11 Filename : /Users/Home/Music/Night Of The Demons/11 Victims Of The Press.flac Pre-gap length : 00:01:61

Track gain : -9.94 dB Peak : 1.000000 CRC32 hash (test run) : 429967D9 CRC32 hash : 429967D9 CRC32 hash (skip zero) : 930ADCF0 AccurateRip v1 signature : ACF64203 AccurateRip v2 signature : C760D318 ->Track not present in AccurateRip database. Statistics Read error : 0 Jitter error (maybe fixed) : 0 Retry sector count : 0 Damaged sector count : 0

Track 12 Filename : /Users/Home/Music/Night Of The Demons/12 The Beast Inside.flac Pre-gap length : 00:02:55

Track gain : -9.46 dB Peak : 0.977234 CRC32 hash (test run) : 3664D3FD CRC32 hash : 3664D3FD CRC32 hash (skip zero) : 1B0AA4EF AccurateRip v1 signature : 07CE9FE8 AccurateRip v2 signature : 15566238 ->Track not present in AccurateRip database. Statistics Read error : 0 Jitter error (maybe fixed) : 0 Retry sector count : 0 Damaged sector count : 0

Track 13 Filename : /Users/Home/Music/Night Of The Demons/13 Hull House 101.flac Pre-gap length : 00:05:21

Track gain : -4.25 dB Peak : 0.977234 CRC32 hash (test run) : 5C26625E CRC32 hash : 5C26625E CRC32 hash (skip zero) : C732810A AccurateRip v1 signature : 19B703D1 AccurateRip v2 signature : A0B582EF ->Track not present in AccurateRip database. Statistics Read error : 0 Jitter error (maybe fixed) : 0 Retry sector count : 0 Damaged sector count : 0

Track 14 Filename : /Users/Home/Music/Night Of The Demons/14 Check This Out пјЏ Be A Man!.flac Pre-gap length : 00:01:13

Track gain : -8.77 dB Peak : 0.977234 CRC32 hash (test run) : D45F321A CRC32 hash : D45F321A CRC32 hash (skip zero) : 10B9241C AccurateRip v1 signature : 382D658B AccurateRip v2 signature : EDFDC8C9 ->Track not present in AccurateRip database. Statistics Read error : 0 Jitter error (maybe fixed) : 0 Retry sector count : 0 Damaged sector count : 0

Track 15 Filename : /Users/Home/Music/Night Of The Demons/15 The SГ©ance пјЏ Coming From The Basement.flac Pre-gap length : 00:02:24

Track gain : -6.50 dB Peak : 0.977234 CRC32 hash (test run) : 43AD0D71 CRC32 hash : 43AD0D71 CRC32 hash (skip zero) : 356E4A7F AccurateRip v1 signature : AB31D087 AccurateRip v2 signature : FB222060 ->Track not present in AccurateRip database. Statistics Read error : 0 Jitter error (maybe fixed) : 0 Retry sector count : 0 Damaged sector count : 0

Track 16 Filename : /Users/Home/Music/Night Of The Demons/16 The Possession Suite.flac Pre-gap length : 00:01:72

Track gain : -8.83 dB Peak : 0.977234 CRC32 hash (test run) : F41BE478 CRC32 hash : F41BE478 CRC32 hash (skip zero) : 559BD1B9 AccurateRip v1 signature : 349223BD AccurateRip v2 signature : 44CA7E0C ->Track not present in AccurateRip database. Statistics Read error : 0 Jitter error (maybe fixed) : 0 Retry sector count : 0 Damaged sector count : 0

Track 17 Filename : /Users/Home/Music/Night Of The Demons/17 Tall Tales пјЏ Suzie-Q, Where Are You?.flac Pre-gap length : 00:01:57

Track gain : -8.11 dB Peak : 0.977234 CRC32 hash (test run) : 03262D43 CRC32 hash : 03262D43 CRC32 hash (skip zero) : E8203D8B AccurateRip v1 signature : D2F5B663 AccurateRip v2 signature : BB12A645 ->Track not present in AccurateRip database. Statistics Read error : 0 Jitter error (maybe fixed) : 0 Retry sector count : 0 Damaged sector count : 0

Track 18 Filename : /Users/Home/Music/Night Of The Demons/18 Dancing With The Devil.flac Pre-gap length : 00:02:53

Track gain : -4.91 dB Peak : 0.977234 CRC32 hash (test run) : DC267A7A CRC32 hash : DC267A7A CRC32 hash (skip zero) : 9C7F1B10 AccurateRip v1 signature : 851A8C90 AccurateRip v2 signature : 9029F1B8 ->Track not present in AccurateRip database. Statistics Read error : 0 Jitter error (maybe fixed) : 0 Retry sector count : 0 Damaged sector count : 0

Track 19 Filename : /Users/Home/Music/Night Of The Demons/19 Not A Bad Paint Job пјЏ Leaving So Soon?.flac Pre-gap length : 00:02:08

Track gain : -7.22 dB Peak : 0.977234 CRC32 hash (test run) : 35030864 CRC32 hash : 35030864 CRC32 hash (skip zero) : 374A4B1F AccurateRip v1 signature : 96CD3421 AccurateRip v2 signature : B8770EBA ->Track not present in AccurateRip database. Statistics Read error : 0 Jitter error (maybe fixed) : 0 Retry sector count : 0 Damaged sector count : 0

Track 20 Filename : /Users/Home/Music/Night Of The Demons/20 Prey Of The Demons пјЏ Soul Searching.flac Pre-gap length : 00:01:61

Track gain : -7.16 dB Peak : 0.977234 CRC32 hash (test run) : 031DC72C CRC32 hash : 031DC72C CRC32 hash (skip zero) : 2D172915 AccurateRip v1 signature : DDF4C8F7 AccurateRip v2 signature : 14CD1AD5 ->Track not present in AccurateRip database. Statistics Read error : 0 Jitter error (maybe fixed) : 0 Retry sector count : 0 Damaged sector count : 0

Track 21 Filename : /Users/Home/Music/Night Of The Demons/21 How About An Orgy? пјЏ Run Judy, Run!.flac Pre-gap length : 00:02:27

Track gain : -8.34 dB Peak : 0.977234 CRC32 hash (test run) : AE824095 CRC32 hash : AE824095 CRC32 hash (skip zero) : A050C21E AccurateRip v1 signature : 27FA13E7 AccurateRip v2 signature : CEB7F87A ->Track not present in AccurateRip database. Statistics Read error : 0 Jitter error (maybe fixed) : 0 Retry sector count : 0 Damaged sector count : 0

Track 22 Filename : /Users/Home/Music/Night Of The Demons/22 Nowhere To Go.flac Pre-gap length : 00:01:69

Track gain : -6.42 dB Peak : 0.977234 CRC32 hash (test run) : C591E302 CRC32 hash : C591E302 CRC32 hash (skip zero) : 5C337879 AccurateRip v1 signature : 467A9C89 AccurateRip v2 signature : FF3ADEF6 ->Track not present in AccurateRip database. Statistics Read error : 0 Jitter error (maybe fixed) : 0 Retry sector count : 0 Damaged sector count : 0

Track 23 Filename : /Users/Home/Music/Night Of The Demons/23 Left Right, Left Right!.flac Pre-gap length : 00:01:62

Track gain : -10.18 dB Peak : 0.977234 CRC32 hash (test run) : 37B2BC0D CRC32 hash : 37B2BC0D CRC32 hash (skip zero) : 5D2BC4DF AccurateRip v1 signature : F429C194 AccurateRip v2 signature : F4C8F076 ->Track not present in AccurateRip database. Statistics Read error : 0 Jitter error (maybe fixed) : 0 Retry sector count : 0 Damaged sector count : 0

Track 24 Filename : /Users/Home/Music/Night Of The Demons/24 Fighting Back.flac Pre-gap length : 00:01:70

Track gain : -9.68 dB Peak : 0.977234 CRC32 hash (test run) : 76285563 CRC32 hash : 76285563 CRC32 hash (skip zero) : 8AA645C8 AccurateRip v1 signature : 485D8471 AccurateRip v2 signature : DBB5F57D ->Track not present in AccurateRip database. Statistics Read error : 0 Jitter error (maybe fixed) : 0 Retry sector count : 0 Damaged sector count : 0

Track 25 Filename : /Users/Home/Music/Night Of The Demons/25 Escape пјЏ The End?.flac Pre-gap length : 00:01:50

Track gain : -9.05 dB Peak : 0.977234 CRC32 hash (test run) : 6E1CC0C9 CRC32 hash : 6E1CC0C9 CRC32 hash (skip zero) : 3E055EE9 AccurateRip v1 signature : 1DC75650 AccurateRip v2 signature : CE45ECD3 ->Track not present in AccurateRip database. Statistics Read error : 0 Jitter error (maybe fixed) : 0 Retry sector count : 0 Damaged sector count : 0

Track 26 Filename : /Users/Home/Music/Night Of The Demons/26 Halloween Party FX 1.flac Pre-gap length : 00:02:41

Track gain : 0.38 dB Peak : 0.822906 CRC32 hash (test run) : 0BF719D6 CRC32 hash : 0BF719D6 CRC32 hash (skip zero) : 993BE055 AccurateRip v1 signature : D74FB8A6 AccurateRip v2 signature : 6242CB37 ->Track not present in AccurateRip database. Statistics Read error : 0 Jitter error (maybe fixed) : 0 Retry sector count : 0 Damaged sector count : 0

Track 27 Filename : /Users/Home/Music/Night Of The Demons/27 Halloween Party FX 2.flac Pre-gap length : 00:01:70

Track gain : -6.93 dB Peak : 0.884277 CRC32 hash (test run) : 12F3C9BA CRC32 hash : 12F3C9BA CRC32 hash (skip zero) : 0F78FE8C AccurateRip v1 signature : B7F1664F AccurateRip v2 signature : 66249AF3 ->Track not present in AccurateRip database. Statistics Read error : 0 Jitter error (maybe fixed) : 0 Retry sector count : 0 Damaged sector count : 0

Track 28 Filename : /Users/Home/Music/Night Of The Demons/28 Halloween Party FX 3.flac Pre-gap length : 00:02:13

Track gain : -8.82 dB Peak : 0.977234 CRC32 hash (test run) : 5501954F CRC32 hash : 5501954F CRC32 hash (skip zero) : 7942B42F AccurateRip v1 signature : D21E9DD4 AccurateRip v2 signature : 8B644B94 ->Track not present in AccurateRip database. Statistics Read error : 0 Jitter error (maybe fixed) : 0 Retry sector count : 0 Damaged sector count : 0

No errors occurred

End of status report

-----BEGIN XLD SIGNATURE-----PnwRHmq78HtUdDeuG5NXfjV3Gqre18vrYKugJ5pJbyJ4DVWBYOoduyn9RdNJXPKeFkAq_ei.NTiUniHlW9jnS1xEebacWiSmj11mn7y-----END XLD SIGNATURE-----
TITLE "Night Of The Demons"PERFORMER "Dennis Michael Tenney"REM GENRE "Soundtrack"REM DATE "1988"REM DISCNUMBER 1REM TOTALDISCS 1REM DISCID 9011861CREM REPLAYGAIN_ALBUM_GAIN -9.32 dBREM REPLAYGAIN_ALBUM_PEAK 1.000000FILE "01 Night Of The Demons Theme.flac" WAVE TRACK 01 AUDIO TITLE "Night Of The Demons Theme" SONGWRITER "Dennis Michael Tenney" REM REPLAYGAIN_TRACK_GAIN -9.59 dB REM REPLAYGAIN_TRACK_PEAK 0.977234 INDEX 01 00:00:00 TRACK 02 AUDIO TITLE "Suzie Hides The Lipstick" SONGWRITER "Dennis Michael Tenney" REM REPLAYGAIN_TRACK_GAIN -7.35 dB REM REPLAYGAIN_TRACK_PEAK 0.977234 INDEX 00 03:22:20FILE "02 Suzie Hides The Lipstick.flac" WAVE INDEX 01 00:00:00 TRACK 03 AUDIO TITLE "The Burn" SONGWRITER "Dennis Michael Tenney" REM REPLAYGAIN_TRACK_GAIN -6.25 dB REM REPLAYGAIN_TRACK_PEAK 0.977234 INDEX 00 01:37:71FILE "03 The Burn.flac" WAVE INDEX 01 00:00:00 TRACK 04 AUDIO TITLE "Henry Jogs" SONGWRITER "Dennis Michael Tenney" REM REPLAYGAIN_TRACK_GAIN -6.99 dB REM REPLAYGAIN_TRACK_PEAK 0.977234 INDEX 00 02:49:19FILE "04 Henry Jogs.flac" WAVE INDEX 01 00:00:00 TRACK 05 AUDIO TITLE "Judy Runs" SONGWRITER "Dennis Michael Tenney" REM REPLAYGAIN_TRACK_GAIN -9.37 dB REM REPLAYGAIN_TRACK_PEAK 0.977234 INDEX 00 03:48:69FILE "05 Judy Runs.flac" WAVE INDEX 01 00:00:00 TRACK 06 AUDIO TITLE "Roger Runs For The Car" SONGWRITER "Dennis Michael Tenney" REM REPLAYGAIN_TRACK_GAIN -9.60 dB REM REPLAYGAIN_TRACK_PEAK 0.977234 INDEX 00 01:42:61FILE "06 Roger Runs For The Car.flac" WAVE INDEX 01 00:00:00 TRACK 07 AUDIO TITLE "Suzie Strips" SONGWRITER "Dennis Michael Tenney" REM REPLAYGAIN_TRACK_GAIN -9.21 dB REM REPLAYGAIN_TRACK_PEAK 0.977234 INDEX 00 02:10:28FILE "07 Suzie Strips.flac" WAVE INDEX 01 00:00:00 TRACK 08 AUDIO TITLE "Helen Eats The Windshield" SONGWRITER "Dennis Michael Tenney" REM REPLAYGAIN_TRACK_GAIN -7.48 dB REM REPLAYGAIN_TRACK_PEAK 0.977234 INDEX 00 01:13:24FILE "08 Helen Eats The Windshield.flac" WAVE INDEX 01 00:00:00 TRACK 09 AUDIO TITLE "The Cue From Hell" SONGWRITER "Dennis Michael Tenney" REM REPLAYGAIN_TRACK_GAIN -9.29 dB REM REPLAYGAIN_TRACK_PEAK 0.977234 INDEX 00 02:26:06FILE "09 The Cue From Hell.flac" WAVE INDEX 01 00:00:00 TRACK 10 AUDIO TITLE "Computer Date" SONGWRITER "Dennis Michael Tenney" REM REPLAYGAIN_TRACK_GAIN -11.70 dB REM REPLAYGAIN_TRACK_PEAK 1.000000 INDEX 00 07:42:55FILE "10 Computer Date.flac" WAVE INDEX 01 00:00:00 TRACK 11 AUDIO TITLE "Victims Of The Press" SONGWRITER "Dennis Michael Tenney" REM REPLAYGAIN_TRACK_GAIN -9.94 dB REM REPLAYGAIN_TRACK_PEAK 1.000000 INDEX 00 02:56:59FILE "11 Victims Of The Press.flac" WAVE INDEX 01 00:00:00 TRACK 12 AUDIO TITLE "The Beast Inside" SONGWRITER "Dennis Michael Tenney" REM REPLAYGAIN_TRACK_GAIN -9.46 dB REM REPLAYGAIN_TRACK_PEAK 0.977234 INDEX 00 02:59:58FILE "12 The Beast Inside.flac" WAVE INDEX 01 00:00:00 TRACK 13 AUDIO TITLE "Hull House 101" SONGWRITER "Dennis Michael Tenney" REM REPLAYGAIN_TRACK_GAIN -4.25 dB REM REPLAYGAIN_TRACK_PEAK 0.977234 INDEX 00 03:45:31FILE "13 Hull House 101.flac" WAVE INDEX 01 00:00:00 TRACK 14 AUDIO TITLE "Check This Out / Be A Man!" SONGWRITER "Dennis Michael Tenney" REM REPLAYGAIN_TRACK_GAIN -8.77 dB REM REPLAYGAIN_TRACK_PEAK 0.977234 INDEX 00 01:17:68FILE "14 Check This Out / Be A Man!.flac" WAVE INDEX 01 00:00:00 TRACK 15 AUDIO TITLE "The Séance / Coming From The Basement" SONGWRITER "Dennis Michael Tenney" REM REPLAYGAIN_TRACK_GAIN -6.50 dB REM REPLAYGAIN_TRACK_PEAK 0.977234 INDEX 00 00:29:43FILE "15 The Séance / Coming From The Basement.flac" WAVE INDEX 01 00:00:00 TRACK 16 AUDIO TITLE "The Possession Suite" SONGWRITER "Dennis Michael Tenney" REM REPLAYGAIN_TRACK_GAIN -8.83 dB REM REPLAYGAIN_TRACK_PEAK 0.977234 INDEX 00 02:19:66FILE "16 The Possession Suite.flac" WAVE INDEX 01 00:00:00 TRACK 17 AUDIO TITLE "Tall Tales / Suzie-Q, Where Are You?" SONGWRITER "Dennis Michael Tenney" REM REPLAYGAIN_TRACK_GAIN -8.11 dB REM REPLAYGAIN_TRACK_PEAK 0.977234 INDEX 00 01:05:02FILE "17 Tall Tales / Suzie-Q, Where Are You?.flac" WAVE INDEX 01 00:00:00 TRACK 18 AUDIO TITLE "Dancing With The Devil" SONGWRITER "Dennis Michael Tenney" REM REPLAYGAIN_TRACK_GAIN -4.91 dB REM REPLAYGAIN_TRACK_PEAK 0.977234 INDEX 00 02:44:73FILE "18 Dancing With The Devil.flac" WAVE INDEX 01 00:00:00 TRACK 19 AUDIO TITLE "Not A Bad Paint Job / Leaving So Soon?" SONGWRITER "Dennis Michael Tenney" REM REPLAYGAIN_TRACK_GAIN -7.22 dB REM REPLAYGAIN_TRACK_PEAK 0.977234 INDEX 00 01:17:17FILE "19 Not A Bad Paint Job / Leaving So Soon?.flac" WAVE INDEX 01 00:00:00 TRACK 20 AUDIO TITLE "Prey Of The Demons / Soul Searching" SONGWRITER "Dennis Michael Tenney" REM REPLAYGAIN_TRACK_GAIN -7.16 dB REM REPLAYGAIN_TRACK_PEAK 0.977234 INDEX 00 01:54:25FILE "20 Prey Of The Demons / Soul Searching.flac" WAVE INDEX 01 00:00:00 TRACK 21 AUDIO TITLE "How About An Orgy? / Run Judy, Run!" SONGWRITER "Dennis Michael Tenney" REM REPLAYGAIN_TRACK_GAIN -8.34 dB REM REPLAYGAIN_TRACK_PEAK 0.977234 INDEX 00 02:11:25FILE "21 How About An Orgy? / Run Judy, Run!.flac" WAVE INDEX 01 00:00:00 TRACK 22 AUDIO TITLE "Nowhere To Go" SONGWRITER "Dennis Michael Tenney" REM REPLAYGAIN_TRACK_GAIN -6.42 dB REM REPLAYGAIN_TRACK_PEAK 0.977234 INDEX 00 01:14:63FILE "22 Nowhere To Go.flac" WAVE INDEX 01 00:00:00 TRACK 23 AUDIO TITLE "Left Right, Left Right!" SONGWRITER "Dennis Michael Tenney" REM REPLAYGAIN_TRACK_GAIN -10.18 dB REM REPLAYGAIN_TRACK_PEAK 0.977234 INDEX 00 03:47:09FILE "23 Left Right, Left Right!.flac" WAVE INDEX 01 00:00:00 TRACK 24 AUDIO TITLE "Fighting Back" SONGWRITER "Dennis Michael Tenney" REM REPLAYGAIN_TRACK_GAIN -9.68 dB REM REPLAYGAIN_TRACK_PEAK 0.977234 INDEX 00 01:09:13FILE "24 Fighting Back.flac" WAVE INDEX 01 00:00:00 TRACK 25 AUDIO TITLE "Escape / The End?" SONGWRITER "Dennis Michael Tenney" REM REPLAYGAIN_TRACK_GAIN -9.05 dB REM REPLAYGAIN_TRACK_PEAK 0.977234 INDEX 00 02:11:22FILE "25 Escape / The End?.flac" WAVE INDEX 01 00:00:00 TRACK 26 AUDIO TITLE "Halloween Party FX 1" SONGWRITER "Dennis Michael Tenney" REM REPLAYGAIN_TRACK_GAIN 0.38 dB REM REPLAYGAIN_TRACK_PEAK 0.822906 INDEX 00 05:05:02FILE "26 Halloween Party FX 1.flac" WAVE INDEX 01 00:00:00 TRACK 27 AUDIO TITLE "Halloween Party FX 2" SONGWRITER "Dennis Michael Tenney" REM REPLAYGAIN_TRACK_GAIN -6.93 dB REM REPLAYGAIN_TRACK_PEAK 0.884277 INDEX 00 03:41:62FILE "27 Halloween Party FX 2.flac" WAVE INDEX 01 00:00:00 TRACK 28 AUDIO TITLE "Halloween Party FX 3" SONGWRITER "Dennis Michael Tenney" REM REPLAYGAIN_TRACK_GAIN -8.82 dB REM REPLAYGAIN_TRACK_PEAK 0.977234 INDEX 00 03:33:01FILE "28 Halloween Party FX 3.flac" WAVE INDEX 01 00:00:00
-----------------------

DON'T MODIFY THIS FILE

-----------------------

PERFORMER: auCDtect Task Manager, ver. 1.6.0 RC1 build 1.6.0.1Copyright (c) 2008-2010 y-soft. All rights reserved

ANALYZER: auCDtect: CD records authenticity detector, version 0.8.2Copyright (c) 2004 Oleg Berngardt. All rights reserved.Copyright (c) 2004 Alexander Djourik. All rights reserved.

FILE: 28 Halloween Party FX 3.flac Size: 10292206 Hash: 200322AEF220C3AE97F541F48C9EE5DA Accuracy: -m0 Conclusion: CDDA 100% Signature: 8489707691002844CC64DE31097486E3CCB7B590FILE: 27 Halloween Party FX 2.flac Size: 11323459 Hash: 864D2DA37A3C1043CA47D1A14EB100C5 Accuracy: -m0 Conclusion: CDDA 100% Signature: 0BE7D00C395D871CB453B87E5314F030EC064B2DFILE: 26 Halloween Party FX 1.flac Size: 13064956 Hash: E5547B33F8D38AFB53D85DC78818050F Accuracy: -m0 Conclusion: CDDA 100% Signature: BEE794454D1BB469693960B9F95778BDCE9A7C2DFILE: 25 Escape / The End.flac Size: 17821812 Hash: 8F9EAA9859FCC55D3E206197436ACD3D Accuracy: -m0 Conclusion: CDDA 100% Signature: 3E7CD2AB681990BD550E25544A2CEB10444D2A5FFILE: 24 Fighting Back.flac Size: 9187402 Hash: 5B729406485EC90D6BA9ACDFC4B11FBD Accuracy: -m0 Conclusion: CDDA 99% Signature: C04ACB0DD62A1571CC3461C1A956A4F2AB7854C9FILE: 23 Left Right, Left Right!.flac Size: 5461874 Hash: 9C2FA202D046F68D4AEFAC087702A088 Accuracy: -m0 Conclusion: CDDA 100% Signature: 6B5463F19B4BC2043822F0D6DF96A773622C591DFILE: 22 Nowhere To Go.flac Size: 13845913 Hash: 9A9277C6C963954A40CE9C0F0E1578E4 Accuracy: -m0 Conclusion: CDDA 100% Signature: 32D5C5B7D1FFE9C0A38A93E0D5AFC6A725D57250FILE: 21 How About An Orgy / Run Judy, Run!.flac Size: 4596540 Hash: 4F897E7EDF014A9A243CB1C92DB5E6A9 Accuracy: -m0 Conclusion: CDDA 100% Signature: 957B29B93604C67C84D317474AA0B5526480A633FILE: 20 Prey Of The Demons / Soul Searching.flac Size: 7210724 Hash: 5EA6BF3946159CBF728769609A14451D Accuracy: -m0 Conclusion: CDDA 99% Signature: A29739FF19A3CC42F9577CD0C1F798C6EEB6F7CAFILE: 19 Not A Bad Paint Job / Leaving So Soon.flac Size: 6249907 Hash: F3B6C852998FE275DC33982FA51AA4BE Accuracy: -m0 Conclusion: CDDA 100% Signature: 770A36F38F3A754B3005DDA979C221BDCA1135ECFILE: 18 Dancing With The Devil.flac Size: 4715220 Hash: 028C79A38D9938AF33979627F0538CA8 Accuracy: -m0 Conclusion: CDDA 100% Signature: 158B36A6C2E4ECEB08E944865E52D7B702F57C32FILE: 17 Tall Tales / Suzie-Q, Where Are You.flac Size: 8593449 Hash: B4BD627A7BC461CE0A23D4E892F60FB7 Accuracy: -m0 Conclusion: CDDA 100% Signature: 79E6DC4AB44EA738E5AC9D6E1BE9567A80302FCEFILE: 16 The Possession Suite.flac Size: 4066354 Hash: D51AB971C4AB2A8F38F79205A52B1FBB Accuracy: -m0 Conclusion: CDDA 100% Signature: DBF9F2B8A477325E1F4427F4008960E0EB6D7A33FILE: 15 The Séance / Coming From The Basement.flac Size: 7089312 Hash: DEBBA3C9471D0BC30F8C6AA6E8F13818 Accuracy: -m0 Conclusion: CDDA 100% Signature: 5E2EDE9E1AF554C29A6D9E0A3BF2E389957E4680FILE: 14 Check This Out / Be A Man!.flac Size: 1914478 Hash: 9DB8FEB3E5392DC9D0901687ED878746 Accuracy: -m0 Conclusion: CDDA 99% Signature: 22E4F1F3DD48D09A9AB37F3A74DDE43E6C792B54FILE: 13 Hull House 101.flac Size: 4018746 Hash: BD7E714D3B825DCCFEEC3FE1CE59B3E4 Accuracy: -m0 Conclusion: CDDA 100% Signature: 4DB3E5A975E46A337529C6BCF315C5E8B9C22783FILE: 12 The Beast Inside.flac Size: 15814479 Hash: 6810099A7B0B81096EEA88D47F74B821 Accuracy: -m0 Conclusion: CDDA 100% Signature: 3C42AE5D42A895D213F3AA6902E561AB88ABE514FILE: 11 Victims Of The Press.flac Size: 19092112 Hash: 746C4E73FDC48744D638AF973195F8C3 Accuracy: -m0 Conclusion: MPEG 100% Signature: 4FF0A6C0EF413EC63FBD66AF87B10CA0D5F3A540FILE: 10 Computer Date.flac Size: 18824777 Hash: B0A33504494826FEB19C01C9DB681641 Accuracy: -m0 Conclusion: MPEG 100% Signature: EB3E6E0372D9AD65E696AA0FD001E6D9B738CB7EFILE: 09 The Cue From Hell.flac Size: 43304562 Hash: 4D4D70D01E9345A31BB3D20283FF2BE5 Accuracy: -m0 Conclusion: MPEG 100% Signature: 6657FD55309F48D48CB1D5658086488ABC0ECAE2FILE: 08 Helen Eats The Windshield.flac Size: 12522113 Hash: 27C7D11961B6A9A0CF320B23BF763E30 Accuracy: -m0 Conclusion: MPEG 100% Signature: 32978ECF4B246CCE907244B65C6CE5BBA28630B7FILE: 07 Suzie Strips.flac Size: 6791840 Hash: 9C4285A12CB0793F86BFAC11C441A5B0 Accuracy: -m0 Conclusion: MPEG 100% Signature: CBAE5E69DB3D7A927AEC63A3A04A82623F89239EFILE: 06 Roger Runs For The Car.flac Size: 12017561 Hash: EEAFAC7D434EDF3712198F96487817B3 Accuracy: -m0 Conclusion: MPEG 100% Signature: E6566B3EF488C50AAA5DB46D012AF5319A8D441BFILE: 05 Judy Runs.flac Size: 9512559 Hash: 818E4EFB8820DD7BB1CCF67F0D75AD6E Accuracy: -m0 Conclusion: MPEG 100% Signature: 5E2A89445BCB043B3124D8FD1C2DF5A28B585255FILE: 04 Henry Jogs.flac Size: 19595803 Hash: 45E5008E38AA53C9FEFEE53345B5EE43 Accuracy: -m0 Conclusion: MPEG 100% Signature: 4BD9C849F49154A9D7EAA75A0C6D43323E318F98FILE: 03 The Burn.flac Size: 16020565 Hash: F6A524C21A235388BD2B5732565684F5 Accuracy: -m0 Conclusion: ??? Signature: 179EF728BA7C77BD44030B36986B3D61082253E6FILE: 02 Suzie Hides The Lipstick.flac Size: 8066068 Hash: D97CD8D6CA60DFED7AF6B2E1812041C9 Accuracy: -m0 Conclusion: MPEG 90% Signature: 2244DC36F27E0928B8442525BAD2E9900C230413FILE: 01 Night Of The Demons Theme.flac Size: 13665666 Hash: 0E9C80E563689BE587ED61222233FFE6 Accuracy: -m0 Conclusion: CDDA 100% Signature: 09AE73CA311BEED073A572395CE50DEDC933F8AC
<div class="clear" style="height: 8px;"></div>

Трекер:  [ 07-Фев-2017 08:00 ]

  

Скачать .torrent

Размер .torrent файла 16 KB


Размер: 341 MB
Хэш (hash) релиза: cbedbfc5145b6f390be3fd8aed9abd7582bef4df

Торренты, похожие на Ночь демонов Night Of The Demons скачать торрент

Форум Название Автор Размер S L Добавлен
Саундтреки к фильмам и мультфильмам (mp3) ·· (Score) Ночь демонов / Night Of The Demons (Dennis Michael Tenney) - 2015 (1988), MP3, 320 kbps Galfimbul 215337290205 MB 0 0 1485764095

11:14

30-Янв-17

Саундтреки к фильмам и мультфильмам (lossless) ·· (Score) Ночь демонов / Night Of The Demons (Dennis Michael Tenney) - 2015, FLAC (tracks+.cue), lossless Galfimbul 324936483310 MB 0 0 1484610091

02:41

17-Янв-17

Еще никто не оставлял запись к записи скачать торрент Ночь демонов Night Of The Demons . Будь первым!

!Обратная связь