Скачать через торрент Чапаев Чапаев Фильм бесплатно в хорошем качестве torrent

Скачивайте на UnionPeer.org фильмы через торрент без регистрации. Новинки кино в хорошем качестве через торрент. На UnionPeer.org можно скачать через торрент фильмы 2014 и 2015 годов. Самые новые фильмы.

Скачать торрент Чапаев Чапаев бесплатно через .torrent фильм мультфильм сериал

Статистика раздачи
Размер:  1.46 GB   |    Зарегистрирован:  16 дней   |    .torrent скачан:  231 раз   |   
Раздают:  6  
   
 
Автор Сообщение

Galfimbul

avatar Galfimbul


Чапаев Чапаев

Год выхода: 2013
Жанр: Комедия
Режиссер: Виктор Тихомиров
В ролях: Иван Охлобыстин, Александр Баширов, Михаил Шац, Тарас Бибич, Сергей Перегудов, Ольга Толстецкая, Вячеслав Карпов, Наталья Иохвидова, Артём Музыченко, Владимир Гладкий

О фильме:
События в фильме происходят параллельно — это двадцатые и шестидесятые годы. В шестидесятых — речь пойдёт о фальшивомонетчице, которая влюбляется в актёра, исполняющего роль Чапаева. Двадцатые — это годы Гражданской войны, на фронтах которой Чапаев принимал активное участие.


Страна: Россия
Студия: Ленфильм, Хорошо Продакшн, кинокомпания Башня
Продолжительность: 02:00:02
Перевод: Не требуется

Файл
Качество: WEB-DLRip
Кодек: XviD
Видео: 720x400 (16:9), 24 fps, XviD ~ 1350 kbps avg, 0.195 bit/pixel
Аудио: AC3, 48 kHz, 6 ch, ~384.00 kbps avg | русский
Субтитры: Отсутствуют

Семпл
Общее
Полное имя : D:TorrentsЗавершенныеChapaev.Chapaev.2013.WEB-DLRip_POWER.avi
Формат : AVI
Формат/Информация : Audio Video Interleave
Размер файла : 1,46 Гбайт
Продолжительность : 2 ч. 0 м.
Общий поток : 1743 Кбит/сек
Программа кодирования : VirtualDubMod 1.5.10.3 (build 2550/release)
Библиотека кодирования : VirtualDubMod build 2550/release

Видео
Идентификатор : 0
Формат : MPEG-4 Visual
Профиль формата : Advanced Simple@L5
Параметр BVOP формата : 2
Параметр QPel формата : Нет
Параметр GMC формата : Без точки перехода
Параметр матрицы формата : Выборочная
Идентификатор кодека : XVID
Идентификатор кодека/Подсказка : XviD
Продолжительность : 2 ч. 0 м.
Битрейт : 1350 Кбит/сек
Ширина : 720 пикселей
Высота : 400 пикселей
Соотношение сторон : 16:9
Частота кадров : 24,000 кадра/сек
Цветовое пространство : YUV
Субдискретизация насыщенности : 4:2:0
Битовая глубина : 8 бит
Тип развёртки : Прогрессивная
Метод сжатия : С потерями
Бит/(Пиксели*Кадры) : 0.195
Размер потока : 1,13 Гбайт (77%)
Библиотека кодирования : XviD 73

Аудио
Идентификатор : 1
Формат : AC-3
Формат/Информация : Audio Coding 3
Расширение режима : CM (complete main)
Параметр Endianness формата : Big
Идентификатор кодека : 2000
Продолжительность : 2 ч. 0 м.
Вид битрейта : Постоянный
Битрейт : 384 Кбит/сек
Каналы : 6 каналов
Расположение каналов : Front: L C R, Side: L R, LFE
Частота : 48,0 КГц
Метод сжатия : С потерями
Размер потока : 330 Мбайт (22%)
Выравнивание : Разделение по промежуткам
Продолжительность промежутка : 42 мс. (1,00 видеокадр)
Время предзагрузки промежутка : 500 мс.


Трекер:  [ 07-Фев-2017 08:00 ]

  

Скачать .torrent

Размер .torrent файла 15 KB


Размер: 1.46 GB
Хэш (hash) релиза: e87361f097ca4bf65a55ac95d5069f7cacf0780d
Подписка на обновления:

Еще никто не оставлял запись к записи скачать торрент Чапаев Чапаев . Будь первым!

!Обратная связь