Скачать через торрент Чапаев Чапаев Фильм бесплатно в хорошем качестве torrent

Скачивайте на UnionPeer.org фильмы через торрент без регистрации. Новинки кино в хорошем качестве через торрент. На UnionPeer.org можно скачать через торрент фильмы 2014 и 2015 годов. Самые новые фильмы.

Скачать торрент Чапаев Чапаев бесплатно через .torrent фильм мультфильм сериал

Если у вас наблюдаются проблемы со скриншотами, переходом по ссылками, скачиванием торрентов - проблемы в блокировщике рекламы AdBlock. #хорошегоДня!


Статистика раздачи
Размер:  3.67 GB   |    Зарегистрирован:  7 месяцев   |    .torrent скачан:  157 раз   |   
Раздают:  1  
   
Загрузка...
 
Автор Сообщение

Galfimbul

avatar Galfimbul


Чапаев Чапаев

Год выхода: 2013
Жанр: Комедия
Режиссер: Виктор Тихомиров
В ролях: Иван Охлобыстин, Александр Баширов, Михаил Шац, Тарас Бибич, Сергей Перегудов, Ольга Толстецкая, Вячеслав Карпов, Наталья Иохвидова, Артём Музыченко, Владимир Гладкий

О фильме:
События в фильме происходят параллельно — это двадцатые и шестидесятые годы. В шестидесятых — речь пойдёт о фальшивомонетчице, которая влюбляется в актёра, исполняющего роль Чапаева. Двадцатые — это годы Гражданской войны, на фронтах которой Чапаев принимал активное участие.


Страна: Россия
Студия: Ленфильм, Хорошо Продакшн, кинокомпания Башня
Продолжительность: 02:00:02
Перевод: Не требуется

Файл
Качество: WEB-DL 720p
Кодек: MPEG-4 AVC
Видео: 1280x720 (16:9), 24 fps, MPEG-4 AVC ~ 3909 kbps avg, 0.177 bit/pixel bit/pixel
Аудио: AC3, 48 kHz, 6 ch, ~384.00 kbps avg | русский
Субтитры: Отсутствуют

Семпл
Общее
Уникальный идентификатор : 227305692468684060692879696700011797306 (0xAB017BE529EC35F3AF1C810ED6195B3A)
Полное имя : D:TorrentsЗавершенныеChapaev.Chapaev.2013.WEB-DL.720.mkv
Формат : Matroska
Версия формата : Version 4 / Version 2
Размер файла : 3,67 Гбайт
Продолжительность : 2 ч. 0 м.
Общий поток : 4380 Кбит/сек
Дата кодирования : UTC 2017-02-06 21:00:47
Программа кодирования : mkvmerge v7.1.0 ('Good Love') 64bit built on Jul 27 2014 13:06:55
Библиотека кодирования : libebml v1.3.0 + libmatroska v1.4.1
DURATION : 02:00:01.984000000
NUMBER_OF_FRAMES : 225062
NUMBER_OF_BYTES : 345695232
_STATISTICS_WRITING_APP : mkvmerge v7.1.0 ('Good Love') 64bit built on Jul 27 2014 13:06:55
_STATISTICS_WRITING_DATE_UTC : 2017-02-06 21:00:47
_STATISTICS_TAGS : BPS DURATION NUMBER_OF_FRAMES NUMBER_OF_BYTES

Видео
Идентификатор : 1
Формат : AVC
Формат/Информация : Advanced Video Codec
Профиль формата : High@L3.1
Параметр CABAC формата : Нет
Параметр ReFrames формата : 2 кадра
Идентификатор кодека : V_MPEG4/ISO/AVC
Продолжительность : 2 ч. 0 м.
Битрейт : 3909 Кбит/сек
Ширина : 1280 пикселей
Высота : 720 пикселей
Соотношение сторон : 16:9
Режим частоты кадров : Постоянный
Частота кадров : 24,000 кадра/сек
Цветовое пространство : YUV
Субдискретизация насыщенности : 4:2:0
Битовая глубина : 8 бит
Тип развёртки : Прогрессивная
Бит/(Пиксели*Кадры) : 0.177
Размер потока : 3,28 Гбайт (89%)
Язык : Russian
Default : Да
Forced : Нет
Цветовой диапазон : Limited
Основные цвета : BT.709
Характеристики трансфера : BT.709
Коэффициенты матрицы : BT.709

Аудио
Идентификатор : 2
Формат : AC-3
Формат/Информация : Audio Coding 3
Расширение режима : CM (complete main)
Параметр Endianness формата : Big
Идентификатор кодека : A_AC3
Продолжительность : 2 ч. 0 м.
Вид битрейта : Постоянный
Битрейт : 384 Кбит/сек
Каналы : 6 каналов
Расположение каналов : Front: L C R, Side: L R, LFE
Частота : 48,0 КГц
Метод сжатия : С потерями
Задержка видео : 42 мс.
Размер потока : 330 Мбайт (9%)
Язык : Russian
Default : Да
Forced : Нет

Меню
00:00:00.000 : ru:01
00:06:02.625 : ru:02
00:12:34.625 : ru:03
00:20:38.250 : ru:04
00:26:45.750 : ru:05
00:33:00.333 : ru:06
00:39:32.874 : ru:07
00:47:00.874 : ru:08
00:54:16.499 : ru:09
01:01:26.832 : ru:10
01:09:44.207 : ru:11
01:18:12.582 : ru:12
01:24:57.790 : ru:13
01:31:12.248 : ru:14
01:39:00.373 : ru:15
01:46:25.581 : ru:16
01:54:05.956 : ru:17


Трекер:  [ 07-Фев-2017 06:00 ]

  

Скачать .torrent

Размер .torrent файла 19 KB


Размер: 3.67 GB
Хэш (hash) релиза: ff024aaa724d004228d745c54dcb0c38ce266158
Подписка на обновления:

Еще никто не оставлял запись к записи скачать торрент Чапаев Чапаев . Будь первым!

!Обратная связь