Скачать через торрент музыку бесплатно без регистрации torrent

Если у вас наблюдаются проблемы со скриншотами, переходом по ссылками, скачиванием торрентов - проблемы в блокировщике рекламы AdBlock. #хорошегоДня!


Статистика раздачи
Размер:  278 MB   |    Зарегистрирован:  7 месяцев   |    .torrent скачан:  11 раз   |   
Раздают:  1  
   
Загрузка...
 
Автор Сообщение

Galfimbul

avatar Galfimbul


<span class="post-font-serif1">Yo-Yo Ma / Yo-Yo Ma plays Ennio Morricone</span>

<span class="post-font-serif1">[b]Жанр: Score
Носитель: CD
Композитор: Ennio Morricone
Год издания: 2004
Издатель (лейбл): Sony Classical
Номер по каталогу: SK 93456
Страна исполнителя (группы): USA
Аудиокодек: FLAC (*.flac)
Тип рипа: tracks+.cue
Битрейт аудио: lossless
Продолжительность: 00:55:58
Источник (релизер): PHT
Наличие сканов в содержимом раздачи: нет
Discogs: discogs.com[/b]</span>
<span class="post-font-serif1">
• The Mission
01. Gabriel's Oboe from The Mission (3:13)
02. The Falls from The Mission (2:29)
• Giuseppe Tornatore Suite
03. Playing Love from The Legend of 1900 (1:49)
04. Nostalgia from Cinema Paradiso (1:58)
05. Looking for You from Cinema Paradiso (1:43)
06. Main theme from Malena (4:22)
07. Main Theme from A Pure Formality (3:52)
• Sergio Leone Suite
08. Deborah's Theme from Once Upon A Time In America (3:32)
09. Cockeye's Song from Once Upon a Time in America (2:13)
10. Main Theme from Once Upon a Time in America (1:49)
11. Main Theme from Once Upon a Time in the West (3:21)
12. Ecstasy of Gold from The Good, the Bad, and the Ugly (3:59)
• Brian De Palma Suite
13. Main Theme from Casualities of War (3:54)
14. Death Theme from The Untouchables (3:15)
• Moses and Marco Polo Suite
15. Journey from Moses (2:34)
16. Main Theme from Moses (2:07)
17. Main Theme from Marco Polo (3:25)
• The Lady Caliph
18. Dinner from The Lady Caliph (3:50)
19. Nocturne from The Lady Caliph (2:33)</span>
Exact Audio Copy V1.0 beta 4 from 7. December 2014

EAC extraction logfile from 17. January 2015, 16:05

Yo-Yo Ma / Yo-Yo Ma Plays Ennio Morricone

Used drive : HL-DT-STRW/DVD MU10N Adapter: 1 ID: 0

Read mode : SecureUtilize accurate stream : YesDefeat audio cache : YesMake use of C2 pointers : No

Read offset correction : 102Overread into Lead-In and Lead-Out : NoFill up missing offset samples with silence : YesDelete leading and trailing silent blocks : NoNull samples used in CRC calculations : YesUsed interface : Native Win32 interface for Win NT & 2000Gap handling : Appended to previous track

Used output format : User Defined EncoderSelected bitrate : 1024 kBit/sQuality : HighAdd ID3 tag : NoCommand line compressor : C:\Program Files (x86)\Exact Audio Copy\FLAC\FLAC.EXEAdditional command line options : -8 -V -T "artist=%artist%" -T "title=%title%" -T "album=%albumtitle%" -T "date=%year%" -T "tracknumber=%tracknr%" -T "genre=%genre%" %source%

TOC of the extracted CD

Track | Start | Length | Start sector | End sector --------------------------------------------------------- 1 | 0:00.00 | 3:13.05 | 0 | 14479 2 | 3:13.05 | 2:28.56 | 14480 | 25635 3 | 5:41.61 | 1:48.74 | 25636 | 33809 4 | 7:30.60 | 1:58.19 | 33810 | 42678 5 | 9:29.04 | 1:43.19 | 42679 | 50422 6 | 11:12.23 | 4:21.53 | 50423 | 70050 7 | 15:34.01 | 3:52.25 | 70051 | 87475 8 | 19:26.26 | 3:32.03 | 87476 | 103378 9 | 22:58.29 | 2:12.51 | 103379 | 113329 10 | 25:11.05 | 1:48.55 | 113330 | 121484 11 | 26:59.60 | 3:21.03 | 121485 | 136562 12 | 30:20.63 | 3:58.63 | 136563 | 154475 13 | 34:19.51 | 3:53.72 | 154476 | 172022 14 | 38:13.48 | 3:15.36 | 172023 | 186683 15 | 41:29.09 | 2:34.00 | 186684 | 198233 16 | 44:03.09 | 2:06.47 | 198234 | 207730 17 | 46:09.56 | 3:24.43 | 207731 | 223073 18 | 49:34.24 | 3:50.37 | 223074 | 240360 19 | 53:24.61 | 2:33.36 | 240361 | 251871

Track 1

Filename Z:\eac\01 - Gabriel's Oboe from The Mission.wav

Pre-gap length 0:00:02.00

Peak level 99.9 % Extraction speed 2.4 X Track quality 100.0 % Test CRC 2C8FF0F0 Copy CRC 2C8FF0F0 Accurately ripped (confidence 74) [208E7458] (AR v2) Copy OK

Track 2

Filename Z:\eac\02 - The Falls from The Mission.wav

Peak level 99.9 % Extraction speed 2.0 X Track quality 99.9 % Test CRC C27FD36A Copy CRC C27FD36A Accurately ripped (confidence 72) [28CB8183] (AR v2) Copy OK

Track 3

Filename Z:\eac\03 - Playing Love from The Legend of 1900.wav

Pre-gap length 0:00:03.45

Peak level 99.9 % Extraction speed 2.3 X Track quality 100.0 % Test CRC D1D0830F Copy CRC D1D0830F Accurately ripped (confidence 71) [27BE7C5F] (AR v2) Copy OK

Track 4

Filename Z:\eac\04 - Nostalgia from Cinema Paradiso.wav

Peak level 99.9 % Extraction speed 2.5 X Track quality 100.0 % Test CRC 28BFC483 Copy CRC 28BFC483 Accurately ripped (confidence 69) [8EB269B6] (AR v2) Copy OK

Track 5

Filename Z:\eac\05 - Looking for You from Cinema Paradiso.wav

Peak level 99.9 % Extraction speed 2.0 X Track quality 99.8 % Test CRC 16ED2FF6 Copy CRC 16ED2FF6 Accurately ripped (confidence 72) [0832CA95] (AR v2) Copy OK

Track 6

Filename Z:\eac\06 - Main theme from Malena.wav

Peak level 99.9 % Extraction speed 3.1 X Track quality 100.0 % Test CRC B196BCAC Copy CRC B196BCAC Accurately ripped (confidence 71) [FB938DA1] (AR v2) Copy OK

Track 7

Filename Z:\eac\07 - Main Theme from A Pure Formality.wav

Peak level 99.9 % Extraction speed 3.3 X Track quality 100.0 % Test CRC 393C01F0 Copy CRC 393C01F0 Accurately ripped (confidence 71) [F0ADC547] (AR v2) Copy OK

Track 8

Filename Z:\eac\08 - Deborah's Theme from Once Upon A Time In America.wav

Pre-gap length 0:00:03.62

Peak level 98.1 % Extraction speed 3.4 X Track quality 100.0 % Test CRC BDC23F6F Copy CRC BDC23F6F Accurately ripped (confidence 71) [22B8A412] (AR v2) Copy OK

Track 9

Filename Z:\eac\09 - Cockeye's Song from Once Upon a Time in America.wav

Peak level 99.9 % Extraction speed 3.2 X Track quality 100.0 % Test CRC B6EA8187 Copy CRC B6EA8187 Accurately ripped (confidence 71) [77D0AF5B] (AR v2) Copy OK

Track 10

Filename Z:\eac\10 - Main Theme from Once Upon a Time in America.wav

Peak level 99.9 % Extraction speed 3.1 X Track quality 100.0 % Test CRC CD089E40 Copy CRC CD089E40 Accurately ripped (confidence 72) [6D53A631] (AR v2) Copy OK

Track 11

Filename Z:\eac\11 - Main Theme from Once Upon a Time in the West.wav

Peak level 99.9 % Extraction speed 3.6 X Track quality 100.0 % Test CRC 4285F4BB Copy CRC 4285F4BB Accurately ripped (confidence 72) [E3E8525F] (AR v2) Copy OK

Track 12

Filename Z:\eac\12 - Ecstasy of Gold from The Good, the Bad, and the Ugly.wav

Peak level 99.9 % Extraction speed 3.9 X Track quality 100.0 % Test CRC 76E1347D Copy CRC 76E1347D Accurately ripped (confidence 71) [A367547F] (AR v2) Copy OK

Track 13

Filename Z:\eac\13 - Main Theme from Casualities of War.wav

Pre-gap length 0:00:01.49

Peak level 99.9 % Extraction speed 4.0 X Track quality 100.0 % Test CRC 1F495913 Copy CRC 1F495913 Accurately ripped (confidence 72) [B864BE2C] (AR v2) Copy OK

Track 14

Filename Z:\eac\14 - Death Theme from The Untouchables.wav

Peak level 99.9 % Extraction speed 4.0 X Track quality 100.0 % Test CRC F0F6A0E5 Copy CRC F0F6A0E5 Accurately ripped (confidence 71) [D8DE65CA] (AR v2) Copy OK

Track 15

Filename Z:\eac\15 - Journey from Moses.wav

Pre-gap length 0:00:05.08

Peak level 99.9 % Extraction speed 3.3 X Track quality 99.9 % Test CRC 9DC95463 Copy CRC 9DC95463 Accurately ripped (confidence 72) [EB204D44] (AR v2) Copy OK

Track 16

Filename Z:\eac\16 - Main Theme from Moses.wav

Peak level 83.0 % Extraction speed 3.8 X Track quality 100.0 % Test CRC CF91CEF7 Copy CRC CF91CEF7 Accurately ripped (confidence 70) [96A710CE] (AR v2) Copy OK

Track 17

Filename Z:\eac\17 - Main Theme from Marco Polo.wav

Peak level 99.9 % Extraction speed 2.3 X Track quality 99.8 % Test CRC 9DCDF243 Copy CRC 9DCDF243 Accurately ripped (confidence 71) [9499DF60] (AR v2) Copy OK

Track 18

Filename Z:\eac\18 - Dinner from The Lady Caliph.wav

Pre-gap length 0:00:03.11

Peak level 99.9 % Extraction speed 4.5 X Track quality 100.0 % Test CRC C43C0929 Copy CRC C43C0929 Accurately ripped (confidence 68) [B566F86C] (AR v2) Copy OK

Track 19

Filename Z:\eac\19 - Nocturne from The Lady Caliph.wav

Peak level 99.9 % Extraction speed 2.8 X Track quality 99.8 % Test CRC C37FA825 Copy CRC C37FA825 Accurately ripped (confidence 71) [B114DD8F] (AR v2) Copy OK

All tracks accurately ripped

No errors occurred

End of status report

==== Log checksum 253BEDB9234BC035A1EEB1C92469D91859C3CC9EFD6218AA6DD2367FFE3BF522 ====
REM GENRE ClassicalREM DATE 2004REM DISCID 040D1E13REM COMMENT "ExactAudioCopy v1.0b4"PERFORMER "Yo-Yo Ma"TITLE "Yo-Yo Ma Plays Ennio Morricone"FILE "01 - Gabriel's Oboe from The Mission.wav" WAVE TRACK 01 AUDIO TITLE "Gabriel's Oboe from The Mission" PERFORMER "Yo-Yo Ma" ISRC USSM10412223 INDEX 01 00:00:00FILE "02 - The Falls from The Mission.wav" WAVE TRACK 02 AUDIO TITLE "The Falls from The Mission" PERFORMER "Yo-Yo Ma" ISRC USSM10412224 INDEX 01 00:00:00 TRACK 03 AUDIO TITLE "Playing Love from The Legend of 1900" PERFORMER "Yo-Yo Ma" ISRC USSM10412218 INDEX 00 02:25:11FILE "03 - Playing Love from The Legend of 1900.wav" WAVE INDEX 01 00:00:00FILE "04 - Nostalgia from Cinema Paradiso.wav" WAVE TRACK 04 AUDIO TITLE "Nostalgia from Cinema Paradiso" PERFORMER "Yo-Yo Ma" ISRC USSM10412219 INDEX 01 00:00:00FILE "05 - Looking for You from Cinema Paradiso.wav" WAVE TRACK 05 AUDIO TITLE "Looking for You from Cinema Paradiso" PERFORMER "Yo-Yo Ma" ISRC USSM10412220 INDEX 01 00:00:00FILE "06 - Main theme from Malena.wav" WAVE TRACK 06 AUDIO TITLE "Main theme from Malena" PERFORMER "Yo-Yo Ma" ISRC USSM10412221 INDEX 01 00:00:00FILE "07 - Main Theme from A Pure Formality.wav" WAVE TRACK 07 AUDIO TITLE "Main Theme from A Pure Formality" PERFORMER "Yo-Yo Ma" ISRC USSM10412222 INDEX 01 00:00:00 TRACK 08 AUDIO TITLE "Deborah's Theme from Once Upon A Time In America" PERFORMER "Yo-Yo Ma" ISRC USSM10412231 INDEX 00 03:48:38FILE "08 - Deborah's Theme from Once Upon A Time In America.wav" WAVE INDEX 01 00:00:00FILE "09 - Cockeye's Song from Once Upon a Time in America.wav" WAVE TRACK 09 AUDIO TITLE "Cockeye's Song from Once Upon a Time in America" PERFORMER "Yo-Yo Ma" ISRC USSM10412232 INDEX 01 00:00:00FILE "10 - Main Theme from Once Upon a Time in America.wav" WAVE TRACK 10 AUDIO TITLE "Main Theme from Once Upon a Time in America" PERFORMER "Yo-Yo Ma" ISRC USSM10412233 INDEX 01 00:00:00FILE "11 - Main Theme from Once Upon a Time in the West.wav" WAVE TRACK 11 AUDIO TITLE "Main Theme from Once Upon a Time in the West" PERFORMER "Yo-Yo Ma" ISRC USSM10412234 INDEX 01 00:00:00FILE "12 - Ecstasy of Gold from The Good, the Bad, and the Ugly.wav" WAVE TRACK 12 AUDIO TITLE "Ecstasy of Gold from The Good, the Bad, and the Ugly" PERFORMER "Yo-Yo Ma" ISRC USSM10412235 INDEX 01 00:00:00 TRACK 13 AUDIO TITLE "Main Theme from Casualities of War" PERFORMER "Yo-Yo Ma" ISRC USSM10412229 INDEX 00 03:57:14FILE "13 - Main Theme from Casualities of War.wav" WAVE INDEX 01 00:00:00FILE "14 - Death Theme from The Untouchables.wav" WAVE TRACK 14 AUDIO TITLE "Death Theme from The Untouchables" PERFORMER "Yo-Yo Ma" ISRC USSM10412230 INDEX 01 00:00:00 TRACK 15 AUDIO TITLE "Journey from Moses" PERFORMER "Yo-Yo Ma" ISRC USSM10412225 INDEX 00 03:10:28FILE "15 - Journey from Moses.wav" WAVE INDEX 01 00:00:00FILE "16 - Main Theme from Moses.wav" WAVE TRACK 16 AUDIO TITLE "Main Theme from Moses" PERFORMER "Yo-Yo Ma" ISRC USSM10412226 INDEX 01 00:00:00FILE "17 - Main Theme from Marco Polo.wav" WAVE TRACK 17 AUDIO TITLE "Main Theme from Marco Polo" PERFORMER "Yo-Yo Ma" ISRC USSM10412236 INDEX 01 00:00:00 TRACK 18 AUDIO TITLE "Dinner from The Lady Caliph" PERFORMER "Yo-Yo Ma" ISRC USSM10412228 INDEX 00 03:21:32FILE "18 - Dinner from The Lady Caliph.wav" WAVE INDEX 01 00:00:00FILE "19 - Nocturne from The Lady Caliph.wav" WAVE TRACK 19 AUDIO TITLE "Nocturne from The Lady Caliph" PERFORMER "Yo-Yo Ma" ISRC USSM10412227 INDEX 01 00:00:00
Для поглощения <a href="viewtopic.php?t=232067" class="postLink">...232067</a>
<div class="clear" style="height: 8px;"></div>

Трекер:  [ 05-Фев-2017 19:00 ]

  

Скачать .torrent

Размер .torrent файла 4 KB


Размер: 278 MB
Хэш (hash) релиза: d8f0733652e23a060eb6591fb2ad8fa8bcc19363

Еще никто не оставлял запись к записи скачать торрент . Будь первым!

!Обратная связь