Скачать через торрент Один против всех Сезон: 1 Фильм бесплатно в хорошем качестве torrent

Скачивайте на UnionPeer.org фильмы через торрент без регистрации. Новинки кино в хорошем качестве через торрент. На UnionPeer.org можно скачать через торрент фильмы 2014 и 2015 годов. Самые новые фильмы.

Скачать торрент Один против всех Сезон: 1 бесплатно через .torrent фильм мультфильм сериал

Если у вас наблюдаются проблемы со скриншотами, переходом по ссылками, скачиванием торрентов - проблемы в блокировщике рекламы AdBlock. #хорошегоДня!


Статистика раздачи
Размер:  41.87 GB   |    Зарегистрирован:  5 месяцев 19 дней   |    .torrent скачан:  124 раза   |   
Раздают:  1  
   
Загрузка...
 
Автор Сообщение

Galfimbul

avatar Galfimbul


Один против всех

Год выпуска: 2017
Производство: "Мостелефильм Дистрибьюшн"
Жанр: Боевик, детектив, криминал
Продолжительность: 16 х ~ 00:45:00
Субтитры: нет

Режиссёр: Владимир Виноградов (II), Михаил Вассербаум

В ролях: Михаил Пореченков, Илья Шакунов, Виктория Тарасова, Анна Попова, Олег Чернов, Марина Блейк, Всеволод Яшкин, Максим Деричев, Сергей Черданцев, Владимир Зайцев, Анастасия Фурса, Пётр Белышков, Степан Старчиков, Григорий Меликбекян, Иван Породнов, Михаил Фатеев, Александр Левин (II), Игорь Климов, Макс Уральский, Никита Сологалов, Роман Грохольский, Александр Рубенчик, Ола Кейру, Александр Журман, Алексей Овсянников, Марина Дианова, Михаил Вассербаум

Описание: Приезд в Приморск нового начальника районного одела УВД полковника Ганецкого становится для начальника розыска, Егора Жжёнова, неприятным сюрпризом. К этому времени Жжёнов навел на вверенной ему территории относительный порядок. Криминал знал свое место, а Жжёнов, как настоящий шериф, вершил правосудие. Кого хотел - сажал, кого хотел - миловал...
Одновременно с приездом Ганецкого в Приморске начинает осложняться криминальная обстановка. Происходит нападение на воинскую часть, откуда неизвестные похищают большую партию оружия. Затем начинается война между этническими группировками, которые к этому моменту мирно делили территорию.
Ни Жжёнов, ни его люди не знают, что всё это часть большой игры, в которой все они будут играть заранее отведённые роли.
Кому-то суждено стать героем, кому-то погибнуть, кому-то стать предателем.

Реклама: Нет

Все раздачи сериала: <a href="tracker.php?nm=%D0%9E%D0%B4%D0%B8%D0%BD%20%D0%BF%D1%80%D0%BE%D1%82%D0%B8" class="postLink">Все раздачи сериала</a>

Сэмпл: http://multi-up.com/1137108

Качество: HDTV 1080i
Формат: TS
Видео кодек: AVC
Аудио кодек: MP2
Видео: MPEG-4 AVC, ~ 7900 Кбит/с, 1920x1080, 25 кадр/с
Аудио: Русский (MP2, 2 ch, 192 Кбит/с)
Формат : MPEG-TS
Размер файла : 2,59 Гбайт
Продолжительность : 43 м. 43 с.
Режим общего битрейта : Переменный
Общий поток : 8472 Кбит/сек

Видео
Идентификатор : 901 (0x385)
Идентификатор меню : 1081 (0x439)
Формат : AVC
Формат/Информация : Advanced Video Codec
Профиль формата : Main@L4
Параметр CABAC формата : Да
Параметр ReFrames формата : 2 кадра
Идентификатор кодека : 27
Продолжительность : 43 м. 42 с.
Битрейт : 7859 Кбит/сек
Ширина : 1920 пикселей
Высота : 1080 пикселей
Соотношение сторон : 16:9
Частота кадров : 25,000 кадров/сек
Цветовое пространство : YUV
Субдискретизация насыщенности : 4:2:0
Битовая глубина : 8 бит
Тип развёртки : MBAFF
Метод сохранения типа развёртки : Чередующиеся поля
Порядок развёртки : Верхнее поле первое
Бит/(Пиксели*Кадры) : 0.152
Размер потока : 2,40 Гбайт (93%)
Цветовой диапазон : Limited
Основные цвета : BT.709
Характеристики трансфера : BT.709
Коэффициенты матрицы : BT.709

Аудио
Идентификатор : 902 (0x386)
Идентификатор меню : 1081 (0x439)
Формат : MPEG Audio
Версия формата : Version 1
Профиль формата : Layer 2
Идентификатор кодека : 3
Продолжительность : 43 м. 43 с.
Вид битрейта : Постоянный
Битрейт : 192 Кбит/сек
Каналы : 2 канала
Частота : 48,0 КГц
Метод сжатия : С потерями
Задержка видео : -40 мс.
Размер потока : 60,0 Мбайт (2%)
Язык : Russian
<div class="clear" style="height: 8px;"></div>

Трекер:  [ 03-Фев-2017 20:00 ]

  

Скачать .torrent

Размер .torrent файла 211 KB


Размер: 41.87 GB
Хэш (hash) релиза: 8009f875ca74c43c5d875a6b00c2db520d707d93
Подписка на обновления:

Торренты, похожие на Один против всех Сезон: 1 скачать торрент

Форум Название Автор Размер S L Добавлен
Российские сериалы ·· Один против всех / Сезон: 1 / Серии: 1-8 из 16 (Владимир Виноградов (II), Михаил Вассербаум) [2017, Боевик, детектив, криминал, HDTVRip 720p] Galfimbul 98275615459.15 GB 0 0 1485564194

03:43

28-Янв-17

Еще никто не оставлял запись к записи скачать торрент Один против всех Сезон: 1 . Будь первым!

!Обратная связь