Скачать через торрент Майор и магия Серии: 1-4 из 32 Фильм бесплатно в хорошем качестве torrent

Скачивайте на UnionPeer.org фильмы через торрент без регистрации. Новинки кино в хорошем качестве через торрент. На UnionPeer.org можно скачать через торрент фильмы 2014 и 2015 годов. Самые новые фильмы.

Скачать торрент Майор и магия Серии: 1-4 из 32 бесплатно через .torrent фильм мультфильм сериал

Статистика раздачи
Размер:  1.95 GB   |    Зарегистрирован:  3 месяца 25 дней   |    .torrent скачан:  89 раз   |   
Раздают:  2  
   
 
Автор Сообщение

Galfimbul

avatar Galfimbul


Майор и магия

Год выпуска: 2016
Производство: Россия,Компания «Интра» по заказу Пятого канала
Жанр: детектив,комедия,мистика
Продолжительность: 00:39:00
Субтитры: нет

Режиссёр: Владимир Мельниченко

В ролях: Константин Самоуков, Мария Берсенева, Евгений Сахаров , Константин Войтенко, Олег Примогенов, Виктория Билан, Вячеслав Довженко, Владимир Николаенко, Александр Катунин, Наталья Кудрявцева , Виктор Сарайкин, Евгений Ефремов , Анна Обромёнок, Константин Корецкий, Евгений Плиско-Куприн, Владимир Ямненко, Юрий Одинокий, Андрей Журба, Алексей Смолка, Дария Барихашвили, Константин Косинский, Роман Ясиновский, Вячеслав Николенко, Любовь Тищенко , Яна Горная, Ольга Морозова, Владимир Ющенко , Наталья Кленина, Екатерина Марченко, Екатерина Котова , Елена Борозенец

Описание: Офицер ФСО Антон Амосов проявляет принципиальность и ставит на место обнаглевшего чиновника. Над головой майора сгущаются тучи. Его переводят из Москвы в родной город Рязанск – пока буря не уляжется. Здесь ему приходится работать обычным опером в местном РОВД. Первое задание — арестовать аферистку Елену Воробьяшкину. По дороге у подозреваемой открывается дар предвидения — она предотвращает аварию. Вскоре провидица поступает на службу в полицию и своими «озарениями» помогает Амосову раскрывать самые запутанные дела. Детективный дуэт ждут необычные расследования и личная история на фоне колоритных видов.

Доп. информация: Релиз группа
<a href="tracker.php?nm=Майор+и+магия" class="postLink">Все раздачи сериала</a>
Сэмпл

Качество: WEBRip
Формат: AVI
Видео кодек: XviD
Аудио кодек: AC3
Видео: 720x400 (1.80:1), 25 fps, XviD build 50 ~1541 kbps avg, 0.214 bit/pixel
Аудио: 48 kHz, AC3 Dolby Digital, 2/0 (L,R) ch, ~192.00 kbps avg
General
Complete name : X:\раздачи\Major.i.magija.2016..WEB-DLRip.Files-x\04.Major.i.magija.2016..WEB-DLRip.Files-x.avi
Format : AVI
Format/Info : Audio Video Interleave
File size : 500 MiB
Duration : 39 min 4 s
Overall bit rate : 1 791 kb/s
Writing application : VirtualDubMod 1.5.10.3 | www.virtualdub-fr.org || (build 2550/release)
Writing library : VirtualDubMod build 2550/release

Video
ID : 0
Format : MPEG-4 Visual
Format profile : Advanced Simple@L5
Format settings, BVOP : 1
Format settings, QPel : No
Format settings, GMC : No warppoints
Format settings, Matrix : Custom
Codec ID : XVID
Codec ID/Hint : XviD
Duration : 39 min 4 s
Bit rate : 1 589 kb/s
Width : 720 pixels
Height : 400 pixels
Display aspect ratio : 16:9
Frame rate : 25.000 FPS
Color space : YUV
Chroma subsampling : 4:2:0
Bit depth : 8 bits
Scan type : Progressive
Compression mode : Lossy
Bits/(Pixel*Frame) : 0.221
Stream size : 444 MiB (89%)
Writing library : XviD 73

Audio
ID : 1
Format : AC-3
Format/Info : Audio Coding 3
Mode extension : CM (complete main)
Format settings, Endianness : Big
Codec ID : 2000
Duration : 39 min 4 s
Bit rate mode : Constant
Bit rate : 192 kb/s
Channel(s) : 2 channels
Channel positions : Front: L R
Sampling rate : 48.0 kHz
Frame rate : 31.250 FPS (1536 spf)
Bit depth : 16 bits
Compression mode : Lossy
Stream size : 53.7 MiB (11%)
Alignment : Split accross interleaves
Interleave, duration : 40 ms (1.00 video frame)
Interleave, preload duratio : 500 ms
Внимание! Раздача ведётся путём добавления новых серий
Внимание! Раздача ведётся путём добавления новых серий; при каждом добавлении создётся новый торрент.
Чтобы начать докачку новой серии, пользователям необходимо сделать следующее:
1) остановить скачивание
2) удалить старый торрент у себя из клиента (старые серии удалять не надо)
3) скачать новый торрент и запустить его у себя в клиенте вместо старого, при этом указать клиенту путь в старую папку куда и должно происходить скачивание новых серий.
Ваш клиент при этом должен произвести хеширование (проверку) старой папки (если не производит сам - помогите ему сделать это), и будет докачивать только те серии которых у вас ещё нет. Старые серии при этом не удаляются, а продолжают раздаваться!
Eсли вы уже удалили старые серии, то предотвратить повторную закачку старых серий можно, отжав галочку в соответствовавших местах при запуске нового торрента.
[URL=http://s020.radikal.ru/i717/1701/35/a80235ca6b84.png]
[/URL]
<div class="clear" style="height: 8px;"></div>

Трекер:  [ 03-Фев-2017 02:00 ]

  

Скачать .torrent

Размер .torrent файла 20 KB


Размер: 1.95 GB
Хэш (hash) релиза: 234f1bc87cf6477316ba0ddc19a2aa46817ea436
Подписка на обновления:

Еще никто не оставлял запись к записи скачать торрент Майор и магия Серии: 1-4 из 32 . Будь первым!

!Обратная связь