Скачать через торрент Хроника Крыльев: Весенний гром Tsubasa: Shunraiki бесплатно Аниме Все серии на русском torrent

Если у вас наблюдаются проблемы со скриншотами, переходом по ссылками, скачиванием торрентов - проблемы в блокировщике рекламы AdBlock. #хорошегоДня!


Статистика раздачи
Размер:  15.09 GB   |    Зарегистрирован:  7 месяцев   |    .torrent скачан:  30 раз   |   
Раздают:  1  
   
Загрузка...
 
Автор Сообщение

Galfimbul

avatar Galfimbul


Хроника Крыльев: Весенний гром / Tsubasa: Shunraiki

Год выпуска: 2009
Страна: Япония
Жанр: приключения, драма, фэнтези, романтика
Тип: OVA
Продолжительность: 2 эп. по 28 мин.
Озвучка:
<ol class="post-ul">
Одноголосая (жен) от Haruka
Одноголосая (муж) от Cuba77(AniDub)
Двухголосая (муж/жен) от Zendos & Eladiel (Anilibria)
</ol>

Русские субтитры: есть (отдельным файлом, формат .ass)
Перевод:
<ol class="post-ul">
Shiko, Clementina
</ol>
Хардсаб: Нет
Режиссер: Тада Сюнсукэ
Студия: Тада Сюнсукэ

Описание: Второй цикл OVA продолжает экранизацию известной манги студии CLAMP - Tsubasa Reservoir Chronicle. Путешествие в поисках перьев принцессы Сакуры привело героев в мир Целес. После смерти короля Ашуры мир начинает рушиться, а Фай оказывается заложником собственного проклятия и своей магической силы. Какой ценой герои смогут спастись?

Качество: Blu-Ray Remux
Формат: MKV
Видео кодек: AVC
Аудио кодек: FLAC
Видео: 1920x1080 (16:9) 23,976 fps ~35,6 Mbps 8bit
Аудио:
Jap FLAC, 48000Hz, ~1429 Kbps, 2ch
RUS 1-2 (ext) AC3, 48000Hz, ~192 Kbps, 2ch
RUS 3 (ext) AAC, 48000Hz, ~192 Kbps, 2ch

Субтитры и озвучка взяты из <a href="viewtopic.php?t=4416232" class="postLink">этой</a> раздачи.
Чаптеры присутствуют.
01. Весенний гром. Часть 1.
02. Весенний гром. Часть 2.
Общее
Уникальный идентификатор : 188619567470812598357745448588430102573 (0x8DE6CEABCC79E5E89A9B66977BE5502D)
Полное имя : Z:\Anime Release - working\Tsubasa\[anti-raws]Tsubasa Shunraiki ep.01[BDRemux].mkv
Формат : Matroska
Версия формата : Version 4 / Version 2
Размер файла : 7,37 Гбайт
Продолжительность : 27 м.
Режим общего битрейта : Переменный
Общий поток : 37,9 Мбит/сек
Дата кодирования : UTC 2017-02-01 20:16:39
Программа кодирования : mkvmerge v9.8.0 ('Kuglblids') 64bit
Библиотека кодирования : libebml v1.3.4 + libmatroska v1.4.5

Видео
Идентификатор : 2
Формат : AVC
Формат/Информация : Advanced Video Codec
Профиль формата : High@L4.1
Параметр CABAC формата : Да
Параметр ReFrames формата : 4 кадра
Идентификатор кодека : V_MPEG4/ISO/AVC
Продолжительность : 27 м.
Вид битрейта : Переменный
Битрейт : 36,4 Мбит/сек
Максимальный битрейт : 39,0 Мбит/сек
Ширина : 1920 пикселей
Высота : 1080 пикселей
Соотношение сторон : 16:9
Режим частоты кадров : Постоянный
Частота кадров : 23,976 (24000/1001) кадра/сек
Цветовое пространство : YUV
Субдискретизация насыщенности : 4:2:0
Битовая глубина : 8 бит
Тип развёртки : Прогрессивная
Бит/(Пиксели*Кадры) : 0.733
Размер потока : 7,09 Гбайт (96%)
Default : Нет
Forced : Нет

Аудио
Идентификатор : 1
Формат : FLAC
Формат/Информация : Free Lossless Audio Codec
Идентификатор кодека : A_FLAC
Продолжительность : 27 м.
Вид битрейта : Переменный
Битрейт : 1429 Кбит/сек
Каналы : 2 канала
Расположение каналов : Front: L R
Частота : 48,0 КГц
Частота кадров : 11,719 кадров/сек (4096 spf)
Битовая глубина : 24 бит
Размер потока : 285 Мбайт (4%)
Библиотека кодирования : libFLAC 1.2.1 (UTC 2007-09-17)
Язык : Japanese
Default : Да
Forced : Нет

Меню
00:00:00.000 : en:00:00:00.000
00:02:37.157 : en:00:02:37.157
00:04:09.749 : en:00:04:09.749
00:26:13.572 : en:00:26:13.572
<a href="viewtopic.php?t=4416232" class="postLink">...4416232</a>
--BDRip

Эта раздача - BDRemux
<div class="clear" style="height: 8px;"></div>

Трекер:  [ 01-Фев-2017 23:00 ]

  

Скачать .torrent

Размер .torrent файла 20 KB


Размер: 15.09 GB
Хэш (hash) релиза: d8f66d104deaeb8abe0d34ab3e4ac0fd2dbd02a3
Подписка на обновления:

Еще никто не оставлял запись к записи скачать торрент Хроника Крыльев: Весенний гром Tsubasa: Shunraiki . Будь первым!

!Обратная связь