Скачать через торрент Табу Taboo Фильм бесплатно в хорошем качестве torrent

Скачивайте на UnionPeer.org фильмы через торрент без регистрации. Новинки кино в хорошем качестве через торрент. На UnionPeer.org можно скачать через торрент фильмы 2014 и 2015 годов. Самые новые фильмы.

Скачать торрент Табу Taboo бесплатно через .torrent фильм мультфильм сериал

Статистика раздачи
Размер:  6.17 GB   |    Зарегистрирован:  6 дней   |    .torrent скачан:  527 раз   |   
Раздают:  6   Качают:  3  
   
 
Автор Сообщение

Galfimbul

avatar Galfimbul



Табу | Taboo

• Год выпуска: 2017
• Страна: Великобритания, США
• Жанр: Драма
• Продолжительность: ~ 00:55:00
• Перевод: Профессиональный (многоголосый закадровый) | SDI Media
• Режиссёр: Андерс Энгстрем, Кристоффер Нюхольм
• В ролях: Том Харди, Лео Билл, Уна Чаплин, Ричард Диксон, Дэвид Хейман, Майкл Келли, Дэнни Лигаири, Джонатан Прайс, Рой Торн, Скрубиус Пип
• Описание: Считающийся погибшим, авантюрист и искатель приключений Джеймс Кезиах Делейни вновь в 1814 году, после 10 лет путешествий в Африке, появляется в Лондоне, стремясь отомстить за смерть своего отца. Делейни возвращается, чтобы обнаружить, что ему было оставлено отцом таинственное наследство и строит свою собственную корабельную империю в начале 1800-х годов, играя в опасную игру между двумя воюющими странами - Англией и Америкой...


• Качество: HDTVRip 720p
• Формат: MKV
• Видео: X264, 1280x720 (16:9), 25 fps, ~2000 kbps
• Аудио #1: АС3, 48 kHz, 2 ch, 192 kbps, CBR - Rus
• Субтитры: отсутствуют
• Реклама: отсутствует
Общее
Уникальный идентификатор                 : 242970896357020195082328155917602880045 (0xB6CA7E13E1862A539C7297B9D1917A2D)
Формат                                   : Matroska
Версия формата                           : Version 2
Размер файла                             : 877 Мбайт
Продолжительность                        : 55 м.
Общий поток                              : 2196 Кбит/сек
Дата кодирования                         : UTC 2017-01-31 15:28:00
Программа кодирования                    : mkvmerge v5.8.0 ('No Sleep / Pillow') built on Sep  2 2012 15:37:04
Библиотека кодирования                   : libebml v1.2.3 + libmatroska v1.3.0

Видео
Идентификатор                            : 1
Формат                                   : AVC
Формат/Информация                        : Advanced Video Codec
Профиль формата                          : High@L4.1
Параметр CABAC формата                   : Да
Параметр ReFrames формата                : 5 кадров
Идентификатор кодека                     : V_MPEG4/ISO/AVC
Продолжительность                        : 55 м.
Битрейт                                  : 1961 Кбит/сек
Ширина                                   : 1280 пикселей
Высота                                   : 720 пикселей
Соотношение сторон                       : 16:9
Режим частоты кадров                     : Постоянный
Частота кадров                           : 25,000 кадров/сек
Цветовое пространство                    : YUV
Субдискретизация насыщенности            : 4:2:0
Битовая глубина                          : 8 бит
Тип развёртки                            : Прогрессивная
Бит/(Пиксели*Кадры)                      : 0.085
Размер потока                            : 783 Мбайт (89%)
Библиотека кодирования                   : x264 core 148 r2744 b97ae06
Настройки программы                      : cabac=1 / ref=5 / deblock=1:0:0 / analyse=0x3:0x113 / me=hex / subme=8 / psy=1 / psy_rd=1.00:0.00 / mixed_ref=1 / me_range=16 / chroma_me=1 / trellis=2 / 8x8dct=1 / cqm=0 / deadzone=21,11 / fast_pskip=1 / chroma_qp_offset=-2 / threads=18 / lookahead_threads=3 / sliced_threads=0 / nr=0 / decimate=1 / interlaced=0 / bluray_compat=0 / constrained_intra=0 / bframes=3 / b_pyramid=2 / b_adapt=1 / b_bias=0 / direct=3 / weightb=1 / open_gop=0 / weightp=2 / keyint=250 / keyint_min=25 / scenecut=40 / intra_refresh=0 / rc_lookahead=50 / rc=crf / mbtree=1 / crf=18.0 / qcomp=0.60 / qpmin=0 / qpmax=69 / qpstep=4 / ip_ratio=1.40 / aq=1:1.00
Язык                                     : English
Default                                  : Да
Forced                                   : Нет

Аудио
Идентификатор                            : 2
Формат                                   : AC-3
Формат/Информация                        : Audio Coding 3
Расширение режима                        : CM (complete main)
Параметр Endianness формата              : Big
Идентификатор кодека                     : A_AC3
Продолжительность                        : 55 м.
Вид битрейта                             : Постоянный
Битрейт                                  : 192 Кбит/сек
Каналы                                   : 2 канала
Расположение каналов                     : Front: L R
Частота                                  : 48,0 КГц
Частота кадров                           : 31,250 кадров/сек (1536 spf)
Метод сжатия                             : С потерями
Размер потока                            : 76,7 Мбайт (9%)
Язык                                     : Russian
Default                                  : Да
Forced                                   : Нет
Когда раздача ведётся путём добавления новых серий, при каждом добавлении создётся новый торрент. Чтобы начать докачку новой серии, пользователям необходимо сделать следующее:
(1) остановить скачивание,
(2) удалить старый торрент у себя из клиента (старые серии удалять не надо),
(3) скачать новый торрент и запустить его у себя в клиенте вместо старого, при этом указать клиенту путь в старую папку, куда и должно происходить скачивание новых серий.
Ваш клиент при этом должен произвести хеширование (проверку) старой папки (если не производит сам - помогите ему сделать это), и будет докачивать только те серии, которых у вас ещё нет. Старые серии при этом не удаляются, а продолжают раздаваться!
Eсли вы уже удалили старые серии, то предотвратить повторную закачку старых серий можно, отжав галочку в соответсвующих местах при запуске нового торрента. По возможности, желательно не удалять старые серии как можно дольше, чтобы релизёр не столько продолжал раздавать старые серии, а смог сконцентрироваться на новых.



Трекер:  [ 19-Фев-2017 12:06 ]

  

Скачать .torrent

Размер .torrent файла 31 KB


Размер: 6.17 GB
Хэш (hash) релиза: ef0ca38cebf59140ac0e2c14434df11a9badff52
Подписка на обновления:

bot

Раздача обновлена!
Перекачайте торрент-файл.

bot

Раздача обновлена!
Перекачайте торрент-файл.

bot

Раздача обновлена!
Перекачайте торрент-файл.

Хотите добавить комментарий к записи скачать торрент Табу Taboo

!Обратная связь