Скачать через торрент Легенды завтрашнего дня DCs Legends of Tomorrow Фильм бесплатно в хорошем качестве torrent

Скачивайте на UnionPeer.org фильмы через торрент без регистрации. Новинки кино в хорошем качестве через торрент. На UnionPeer.org можно скачать через торрент фильмы 2014 и 2015 годов. Самые новые фильмы.

Скачать торрент Легенды завтрашнего дня DCs Legends of Tomorrow бесплатно через .torrent фильм мультфильм сериал

Статистика раздачи
Размер:  19.23 GB   |    Зарегистрирован:  8 дней   |    .torrent скачан:  60 раз   |   
Раздают:  1  
   
 
Автор Сообщение

Galfimbul

avatar Galfimbul


Легенды завтрашнего дня / DC's Legends of Tomorrow

Год выпуска: 2016
Страна: США
Жанр: Фантастика, боевик
Продолжительность: 00:40:00
Перевод: Любительский (многоголосый закадровый) Alternative Production
Режиссёр: Дермотт Даунс, Глен Винтер, Джо Данте

В ролях: Виктор Гарбер, Брэндон Рут, Кейти Лотц, Артур Дарвилл, Сиара Рене, Франц Драмех, Доминик Пёрселл, Вентворт Миллер, Каспер Крамп, Фальк Хеншел и др.
Описание: Увидев будущее, которого обязательно нужно избежать, Рип Хантер, путешественник во времени, собирает команду из героев и злодеев, чтобы противостоять смертельной угрозе. На кону стоит не только наша планета, но и все время в целом. Сможет ли эта команда победить бессмертное зло, абсолютно непохожее на то, что они видели раньше?

Качество: HDTV 1080p
Формат: MKV
Видео кодек: H.264
Аудио кодек: AC3
Видео: H.264, 1914x1076 (16:9), 5 139 Kbps, 23.976 fps, 0.104 bit/pixel
Аудио 1: AC3 Dolby Digital, 48 kHz, 3/2 (L,C,R,l,r) + LFE ch, 384 kbps
Аудио 2: AC3 Dolby Digital, 48 kHz, 3/2 (L,C,R,l,r) + LFE ch, 384 kbps
Субтитры: отсутствуют
Реклама: аудио (два раза, в начале и конце, по 5 сек.)

Релиз
General
Unique ID : 178349627221840215014083817556776843568 (0x862CE386044DEDB0BFF4416A2177F930)
Format : Matroska
Format version : Version 4 / Version 2
File size : 1.75 GiB
Duration : 42mn 23s
Overall bit rate : 5 913 Kbps
Encoded date : UTC 2016-10-19 20:11:30
Writing application : mkvmerge v8.3.0 ('Over the Horizon') 64bit
Writing library : libebml v1.3.1 + libmatroska v1.4.2
Attachments : poster (2).png

Video
ID : 1
Format : AVC
Format/Info : Advanced Video Codec
Format profile : High@L4
Format settings, CABAC : Yes
Format settings, ReFrames : 4 frames
Codec ID : V_MPEG4/ISO/AVC
Duration : 42mn 23s
Bit rate : 5 139 Kbps
Width : 1 914 pixels
Height : 1 076 pixels
Display aspect ratio : 16:9
Frame rate mode : Constant
Frame rate : 23.976 (23976/1000) fps
Color space : YUV
Chroma subsampling : 4:2:0
Bit depth : 8 bits
Scan type : Progressive
Bits/(Pixel*Frame) : 0.104
Stream size : 1.52 GiB (87%)
Language : English
Default : Yes
Forced : No
Color range : Limited
Color primaries : BT.709
Transfer characteristics : BT.709
Matrix coefficients : BT.709

Audio #1
ID : 2
Format : AC-3
Format/Info : Audio Coding 3
Mode extension : CM (complete main)
Format settings, Endianness : Big
Codec ID : A_AC3
Duration : 42mn 23s
Bit rate mode : Constant
Bit rate : 384 Kbps
Channel(s) : 6 channels
Channel positions : Front: L C R, Side: L R, LFE
Sampling rate : 48.0 KHz
Frame rate : 31.250 fps (1536 spf)
Compression mode : Lossy
Stream size : 116 MiB (6%)
Title : Alt Pro
Language : Russian
Default : Yes
Forced : No

Audio #2
ID : 3
Format : AC-3
Format/Info : Audio Coding 3
Mode extension : CM (complete main)
Format settings, Endianness : Big
Codec ID : A_AC3
Duration : 42mn 23s
Bit rate mode : Constant
Bit rate : 384 Kbps
Channel(s) : 6 channels
Channel positions : Front: L C R, Side: L R, LFE
Sampling rate : 48.0 KHz
Frame rate : 31.250 fps (1536 spf)
Compression mode : Lossy
Stream size : 116 MiB (6%)
Language : English
Default : No
Forced : No


Трекер:  [ 17-Фев-2017 16:13 ]

  

Скачать .torrent

Размер .torrent файла 49 KB


Размер: 19.23 GB
Хэш (hash) релиза: c3fbe71f397cc1d81fe29fe49a1aff1efa6346ba
Подписка на обновления:

bot

Раздача обновлена!
Перекачайте торрент-файл.

bot

Раздача обновлена!
Перекачайте торрент-файл.

Хотите добавить комментарий к записи скачать торрент Легенды завтрашнего дня DCs Legends of Tomorrow

!Обратная связь