Скачать через торрент Табу Taboo Фильм бесплатно в хорошем качестве torrent

Скачивайте на UnionPeer.org фильмы через торрент без регистрации. Новинки кино в хорошем качестве через торрент. На UnionPeer.org можно скачать через торрент фильмы 2014 и 2015 годов. Самые новые фильмы.

Скачать торрент Табу Taboo бесплатно через .torrent фильм мультфильм сериал

Статистика раздачи
Размер:  18.88 GB   |    Зарегистрирован:  2 месяца 27 дней   |    .torrent скачан:  320 раз   |   
Раздают:  2  
   
 
Автор Сообщение

Galfimbul

avatar Galfimbul


Табу | Taboo

Год выпуска: 2017
Страна: Великобритания, США
Жанр: драма
Продолжительность: 00:55:00
Перевод: Любительский (многоголосый закадровый) Alternative Production
Режиссёр: Андерс Энгстрем, Кристоффер Нюхольм

В ролях: Том Харди, Лео Билл, Уна Чаплин, Ричард Диксон, Дэвид Хейман, Майкл Келли, Дэнни Лигаири, Джонатан Прайс, Рой Торн, Скрубиус Пип и др.
Описание:
Считающийся погибшим, авантюрист и искатель приключений Джеймс Кезиах Делейни вновь в 1814 году, после 10 лет путешествий в Африке, появляется в Лондоне, стремясь отомстить за смерть своего отца. Делейни возвращается, чтобы обнаружить, что ему было оставлено отцом таинственное наследство и строит свою собственную корабельную империю в начале 1800-х годов, играя в опасную игру между двумя воюющими странами - Англией и Америкой...

Качество: WEB-DL 1080p
Формат: MKV
Видео кодек: H.264
Аудио кодек: AC3
Видео: H.264, 1916x1076 (16:9), 25.000 fps, 5 220 Kbpss, 0.101 bit/pixel
Аудио 1: AC3 Dolby Digital, 48 kHz, 3/2 (L,C,R,l,r) + LFE ch, 384 kbps
Аудио 2: AC3 Dolby Digital, 48 kHz, 3/2 (L,C,R,l,r) + LFE ch, 384 kbps
Субтитры: отсутствуют
Реклама: аудио (два раза, в начале и конце, по 5 сек.)

Релиз
General
Unique ID : 203825364601683512337568520125555409686 (0x9957565A06E8C57C83A1733D91080316)
Format : Matroska
Format version : Version 4 / Version 2
File size : 2.30 GiB
Duration : 55mn 5s
Overall bit rate : 5 988 Kbps
Encoded date : UTC 2017-01-20 11:40:46
Writing application : mkvmerge v8.3.0 ('Over the Horizon') 64bit
Writing library : libebml v1.3.1 + libmatroska v1.4.2
Attachments : poster (2).jpg

Video
ID : 1
Format : AVC
Format/Info : Advanced Video Codec
Format profile : High@L4
Format settings, CABAC : Yes
Format settings, ReFrames : 4 frames
Codec ID : V_MPEG4/ISO/AVC
Duration : 55mn 4s
Bit rate : 5 220 Kbps
Width : 1 916 pixels
Height : 1 076 pixels
Display aspect ratio : 16:9
Frame rate mode : Constant
Frame rate : 25.000 fps
Color space : YUV
Chroma subsampling : 4:2:0
Bit depth : 8 bits
Scan type : Progressive
Bits/(Pixel*Frame) : 0.101
Stream size : 2.01 GiB (87%)
Language : English
Default : Yes
Forced : No
Color range : Limited
Color primaries : BT.709
Transfer characteristics : BT.709
Matrix coefficients : BT.709

Audio #1
ID : 2
Format : AC-3
Format/Info : Audio Coding 3
Mode extension : CM (complete main)
Format settings, Endianness : Big
Codec ID : A_AC3
Duration : 55mn 5s
Bit rate mode : Constant
Bit rate : 384 Kbps
Channel(s) : 6 channels
Channel positions : Front: L C R, Side: L R, LFE
Sampling rate : 48.0 KHz
Frame rate : 31.250 fps (1536 spf)
Compression mode : Lossy
Stream size : 151 MiB (6%)
Title : Alt Pro
Language : Russian
Default : Yes
Forced : No

Audio #2
ID : 3
Format : AC-3
Format/Info : Audio Coding 3
Mode extension : CM (complete main)
Format settings, Endianness : Big
Codec ID : A_AC3
Duration : 55mn 4s
Bit rate mode : Constant
Bit rate : 384 Kbps
Channel(s) : 6 channels
Channel positions : Front: L C R, Side: L R, LFE
Sampling rate : 48.0 KHz
Frame rate : 31.250 fps (1536 spf)
Compression mode : Lossy
Stream size : 151 MiB (6%)
Language : English
Default : No
Forced : No


Трекер:  [ 01-Мар-2017 00:26 ]

  

Скачать .torrent

Размер .torrent файла 95 KB


Размер: 18.88 GB
Хэш (hash) релиза: 39054a852d9f498a54c2c43c37124ad1bbd4e911
Подписка на обновления:

Торренты, похожие на Табу Taboo скачать торрент

Форум Название Автор Размер S L Добавлен
Зарубежные сериалы ·· Табу / Taboo / Сезон: 1 / Серия: 1-8 из 8 (Андерс Энгстрем, Кристоффер Нюхольм) [2017, Великобритания, США, Драма WEBRip 720p, HDTVRip 720p] DVO (Кубик в Кубе) Galfimbul 1106914644510.31 GB 0 0 1488412038

02:47

2-Мар-17

Зарубежные сериалы ·· Табу / Taboo / Сезон: 1 / Серии: 1-8 из 8 (Андерс Энгстрем, Кристоффер Нюхольм) [2017, Великобритания, США, Драма, WEB-DL, HDTVRip 1080p] MVO (SDI Media) Galfimbul 2134939543519.88 GB 0 0 1488071871

04:17

26-Фев-17

Зарубежные сериалы ·· Табу / Taboo / Сезон: 1 / Серия: 1-8 из 8 (Андерс Энгстрем, Кристоффер Нюхольм) [2017, Великобритания, США, Драма, WEB-DLRip] MVO (NewStudio) + Original Galfimbul 58721873925.47 GB 1 5 1485885302

20:55

31-Янв-17

Зарубежные сериалы ·· Табу / Taboo / Сезон: 1 / Серии: 1-8 из 8 (Андерс Энгстрем, Кристоффер Нюхольм) [2017, Великобритания, США, Драма, HDTVRip 720p] MVO (SDI Media) Galfimbul 76261984677.1 GB 0 0 1485882272

20:04

31-Янв-17

Зарубежные сериалы ·· Табу / Taboo / Сезон: 1 / Серия: 1-6 из 8 (Андерс Энгстрем, Кристоффер Нюхольм) [2017, Великобритания, США, ДрамаWEBRip (720p)/HDTVRip (720p)] DVO (Кубик в Кубе) Galfimbul 97088161249.04 GB 0 0 1487798355

00:19

23-Фев-17

Зарубежные сериалы ·· Табу / Taboo / Сезон: 1 / Серия: 1-7 из 8 (Андерс Энгстрем, Кристоффер Нюхольм) [2017, Великобритания, США, Драма, HDTVRip 1080p] Original + Rus Sub (FOCS) + Eng Sub Galfimbul 1687446905815.72 GB 0 0 1487519784

18:56

19-Фев-17

Зарубежные сериалы ·· Табу / Taboo / Сезон: 1 / Серии: 1-4 из 8 (Андерс Энгстрем, Кристоффер Нюхольм) [2017, Великобритания, США, Драма, HDTVRip] MVO (SDI Media) Galfimbul 28244254722.63 GB 0 0 1485687840

14:04

29-Янв-17

Зарубежные сериалы ·· Табу / Taboo / Сезон: 1 / Серии: 1-3 из 8 (Андерс Энгстрем, Кристоффер Нюхольм) [2017, Великобритания, США, Драма, WEB-DL 1080p] MVO (LostFilm, NewStudio, Jaskier, AlexFilm) + Original Galfimbul 89884044628.37 GB 0 0 1485548262

23:17

27-Янв-17

Зарубежные сериалы ·· Табу / Taboo / Сезон: 1 / Серии: 1-3 из 8 (Андерс Энгстрем, Кристоффер Нюхольм) [2017, Великобритания, драма, WEBRip/HDTV 1080p] MVO (AMS) + Original Eng + Subs (Rus, Eng) Galfimbul 84052457797.83 GB 0 0 1485541065

21:17

27-Янв-17

Зарубежные сериалы ·· Табу / Taboo / Сезон: 1 / Серии: 1-3 из 8 (Андерс Энгстрем, Кристоффер Нюхольм) [2017, Великобритания, драма, WEBRip/HDTVRip 720p] MVO (AMS) + Original Eng + Subs (Rus, Eng) Galfimbul 41493300243.86 GB 0 0 1485541059

21:17

27-Янв-17

Зарубежные сериалы ·· Табу / Taboo / Сезон: 1 / Серии: 1-3 из 8 (Андерс Энгстрем, Кристоффер Нюхольм) [2017, Великобритания, США, Драма, HDTVRip 720p] MVO (LostFilm) + Original + Subs (Rus, Eng) Galfimbul 47486314724.42 GB 0 0 1485383073

01:24

26-Янв-17

Зарубежные сериалы ·· Табу / Taboo / Сезон: 1 / Серии: 1-3 из 8 (Андерс Энгстрем, Кристоффер Нюхольм) [2017, Великобритания, США, Драма, HDTVRip 1080p] MVO (LostFilm) + Original + Subs (Rus, Eng) Galfimbul 1229667451711.45 GB 0 0 1485383068

01:24

26-Янв-17

Зарубежные сериалы ·· Табу / Taboo / Сезон: 1 / Серия: 1-3 из 8 (Андерс Энгстрем, Кристоффер Нюхольм) [2017, Великобритания, США, Драма WEBRip (AVC)] VO (Кубик в Кубе) Galfimbul 32044740582.98 GB 0 0 1485383063

01:24

26-Янв-17

Зарубежные сериалы ·· Табу / Taboo / Сезон: 1 / Серия: 1-3 из 8 (Андерс Энгстрем, Кристоффер Нюхольм) [2017, Великобритания, США, Драма, WEB-DL 1080p] MVO (NewStudio) + Original Galfimbul 75348599657.02 GB 0 0 1485310081

05:08

25-Янв-17

Зарубежные сериалы ·· Табу / Taboo / Сезон: 1 / Серии: 1-2 из 8 (Андерс Энгстрем, Кристоффер Нюхольм) [2017, Великобритания, США, Драма, WEB-DL 1080p] MVO (Alternative Production) + Original Galfimbul 50362999264.69 GB 0 0 1485111717

22:01

22-Янв-17

Зарубежные сериалы ·· Табу / Taboo / Сезон: 1 / Серии: 1-2 из 8 (Андерс Энгстрем, Кристоффер Нюхольм) [2017, Великобритания, США, Драма, HDTVRip] MVO (LostFilm) Galfimbul 13606850561.27 GB 0 0 1485100238

18:50

22-Янв-17

Зарубежные сериалы ·· Табу / Taboo / Сезон: 1 / Серии: 1-2 из 8 (Андерс Энгстрем, Кристоффер Нюхольм) [2017, Великобритания, США, Драма, HDTVRip-AVC] MVO (LostFilm) + Original + Subs (rus eng) Galfimbul 20764639431.93 GB 0 0 1485100218

18:50

22-Янв-17

Зарубежные сериалы ·· Табу / Taboo / Сезон: 1 / Серии: 1-2 из 8 (Андерс Энгстрем, Кристоффер Нюхольм) [2017, Великобритания, США, Драма, WEB-DLRip] MVO (OmskBird) + Original Galfimbul 25971036162.42 GB 0 0 1484552989

10:49

16-Янв-17

Зарубежные сериалы ·· Табу / Taboo / Сезон: 1 / Серии: 1-2 из 8 (Андерс Энгстрем, Кристоффер Нюхольм) [2017, Великобритания, США, Драма, WEB-DL 720p] MVO (OmskBird) + Original Galfimbul 40632853623.78 GB 0 0 1484549235

09:47

16-Янв-17

bot

Раздача обновлена!
Перекачайте торрент-файл.

bot

Раздача обновлена!
Перекачайте торрент-файл.

bot

Раздача обновлена!
Перекачайте торрент-файл.

bot

Раздача обновлена!
Перекачайте торрент-файл.

Хотите добавить комментарий к записи скачать торрент Табу Taboo

!Обратная связь