Скачать через торрент Черные паруса Black Sails Фильм бесплатно в хорошем качестве torrent

Скачивайте на UnionPeer.org фильмы через торрент без регистрации. Новинки кино в хорошем качестве через торрент. На UnionPeer.org можно скачать через торрент фильмы 2014 и 2015 годов. Самые новые фильмы.

Скачать торрент Черные паруса Black Sails бесплатно через .torrent фильм мультфильм сериал

Статистика раздачи
Размер:  7.09 GB   |    Зарегистрирован:  1 месяц 24 дня   |    .torrent скачан:  578 раз   |   
Раздают:  1  
   
 
Автор Сообщение

Galfimbul

avatar Galfimbul



Чёрные Паруса | Black Sails

• Год выпуска: 2017
• Страна: США
• Жанр: драма, приключения
• Продолжительность: ~ 00:55:00
• Перевод: Профессиональный (многоголосый закадровый) | Amedia
• Режиссёр: Нил Маршалл, Сэм Миллер, Т.Дж. Скотт
• В ролях: Тоби Стивенс, Ханна Нью, Люк Арнольд, Зэк Макгоун, Тоби Шмитц, Клара Пэджет, Марк Райан, Хаким Кае-Казим, Дилан Скьюс, Шон Майкл и др.
• Описание: Пираты Карибского моря для взрослых. Приквел "Острова сокровищ". Действие разворачивается за 20 лет до событий, описанных в романе Стивенсона, в начале ХVIII века, золотого для пиратов южных морей. Место - Багамы, Нью-Провиденс, центр пиратской вселенной, город порока и вечного риска, неудержимо притягательный для искателя приключений.


• Качество: WEBRip
• Формат: AVI
• Видео: XviD, 720x400 (16:9), 25 fps, ~1500 kbps
• Аудио #1: MP3, 48 kHz, 2 ch, 128 kbps, CBR - [RUS]
• Аудио #2: MP3, 48 kHz, 2 ch, 128 kbps, CBR - [ENG]
• Субтитры: русские (амедиа), английские
Общее
Полное имя                               : X:\ATorrent\Black Sails (Season 04) Amedia\Black.Sails.S04E01.XviD.Amedia.(qqss44).avi
Формат                                   : AVI
Формат/Информация                        : Audio Video Interleave
Размер файла                             : 717 Мбайт
Продолжительность                        : 57 м.
Общий поток                              : 1741 Кбит/сек
Программа кодирования                    : VirtualDubMod 1.5.10.3 | www.virtualdub-fr.org || (build 2550/release)
Библиотека кодирования                   : VirtualDubMod build 2550/release

Видео
Идентификатор                            : 0
Формат                                   : MPEG-4 Visual
Профиль формата                          : Advanced Simple@L5
Параметр BVOP формата                    : 2
Параметр QPel формата                    : Нет
Параметр GMC формата                     : Без точки перехода
Параметр матрицы формата                 : Выборочная
Идентификатор кодека                     : XVID
Идентификатор кодека/Подсказка           : XviD
Продолжительность                        : 57 м.
Битрейт                                  : 1471 Кбит/сек
Ширина                                   : 720 пикселей
Высота                                   : 400 пикселей
Соотношение сторон                       : 16:9
Частота кадров                           : 25,000 кадров/сек
Цветовое пространство                    : YUV
Субдискретизация насыщенности            : 4:2:0
Битовая глубина                          : 8 бит
Тип развёртки                            : Прогрессивная
Метод сжатия                             : С потерями
Бит/(Пиксели*Кадры)                      : 0.204
Размер потока                            : 606 Мбайт (84%)
Библиотека кодирования                   : XviD 73

Аудио #1
Идентификатор                            : 1
Формат                                   : MPEG Audio
Версия формата                           : Version 1
Профиль формата                          : Layer 3
Режим                                    : Joint stereo
Расширение режима                        : MS Stereo
Идентификатор кодека                     : 55
Идентификатор кодека/Подсказка           : MP3
Продолжительность                        : 57 м.
Вид битрейта                             : Постоянный
Битрейт                                  : 128 Кбит/сек
Каналы                                   : 2 канала
Частота                                  : 48,0 КГц
Метод сжатия                             : С потерями
Размер потока                            : 52,7 Мбайт (7%)
Выравнивание                             : Соединение по промежуткам
Продолжительность промежутка             : 40  мс. (1,00 видеокадр)
Время предзагрузки промежутка            : 504  мс.

Аудио #2
Идентификатор                            : 2
Формат                                   : MPEG Audio
Версия формата                           : Version 1
Профиль формата                          : Layer 3
Режим                                    : Joint stereo
Расширение режима                        : MS Stereo
Идентификатор кодека                     : 55
Идентификатор кодека/Подсказка           : MP3
Продолжительность                        : 57 м.
Вид битрейта                             : Постоянный
Битрейт                                  : 128 Кбит/сек
Каналы                                   : 2 канала
Частота                                  : 48,0 КГц
Метод сжатия                             : С потерями
Размер потока                            : 52,7 Мбайт (7%)
Выравнивание                             : Соединение по промежуткам
Продолжительность промежутка             : 40  мс. (1,00 видеокадр)
Время предзагрузки промежутка            : 504  мс.
Когда раздача ведётся путём добавления новых серий, при каждом добавлении создётся новый торрент. Чтобы начать докачку новой серии, пользователям необходимо сделать следующее:
(1) остановить скачивание,
(2) удалить старый торрент у себя из клиента (старые серии удалять не надо),
(3) скачать новый торрент и запустить его у себя в клиенте вместо старого, при этом указать клиенту путь в старую папку, куда и должно происходить скачивание новых серий.
Ваш клиент при этом должен произвести хеширование (проверку) старой папки (если не производит сам - помогите ему сделать это), и будет докачивать только те серии, которых у вас ещё нет. Старые серии при этом не удаляются, а продолжают раздаваться!
Eсли вы уже удалили старые серии, то предотвратить повторную закачку старых серий можно, отжав галочку в соответсвующих местах при запуске нового торрента. По возможности, желательно не удалять старые серии как можно дольше, чтобы релизёр не столько продолжал раздавать старые серии, а смог сконцентрироваться на новых.



Трекер:  [ 04-Апр-2017 10:31 ]

  

Скачать .torrent

Размер .torrent файла 38 KB


Размер: 7.09 GB
Хэш (hash) релиза: be2b0eeb9ecd594205ea6275327d00280050a292
Подписка на обновления:

Торренты, похожие на Черные паруса Black Sails скачать торрент

Форум Название Автор Размер S L Добавлен
Зарубежные сериалы ·· Черные паруса / Black Sails / Сезон: 4 / Серии: 1-10 из 10 (Нил Маршалл, Сэм Миллер, Т.Дж. Скотт) [2017, США, ЮАР, драма, приключения, WEBRip 1080p] MVO (Amedia) + Original + Subs (Rus, Eng) Galfimbul 3894987144136.27 GB 0 0 1485756849

09:14

30-Янв-17

Зарубежные сериалы ·· Черные паруса / Black Sails / Сезон: 4 / Серии: 1-7 из 10 (Нил Маршалл, Сэм Миллер, Т.Дж. Скотт) [2017, США, ЮАР, Драма, приключения, WEBRip 1080p] MVO (Baibako) Original + Eng Subs Galfimbul 3070121969428.59 GB 0 0 1489365665

03:41

13-Мар-17

Зарубежные сериалы ·· Черные паруса / Black Sails / Сезон: 4 / Серии: 1-6 из 10 (Нил Маршалл, Сэм Миллер, Т.Дж. Скотт) [2017, США, ЮАР, Драма, приключения, WEBRip] MVO (Baibako) + Original Galfimbul 47219548164.4 GB 2 0 1488821430

20:30

6-Мар-17

Зарубежные сериалы ·· Черные паруса / Black Sails / Сезон: 4 / Серии: 1 из 10 (Нил Маршалл, Сэм Миллер, Т.Дж. Скотт) [2017, США, ЮАР, Драма, приключения, WEBRip 1080p] MVO (LostFilm) + Original + Subs (Rus,Eng) Galfimbul 50647130894.72 GB 0 0 1486036148

14:49

2-Фев-17

Зарубежные сериалы ·· Черные паруса / Black Sails / Сезон: 4 / Серии: 1 из 10 (Нил Маршалл, Сэм Миллер, Т.Дж. Скотт) [2017, США, ЮАР, драма, приключения, WEBRip 720p] MVO (AMS) + Original Eng + Subs (Rus, Eng) Galfimbul 26781883832.49 GB 0 0 1486030872

13:21

2-Фев-17

Зарубежные сериалы ·· Черные паруса / Black Sails / Сезон: 4 / Серии: 1 из 10 (Нил Маршалл, Сэм Миллер, Т.Дж. Скотт) [2017, США, ЮАР, драма, приключения, WEBRip 1080p] MVO (AMS) + Original Eng + Subs (Rus, Eng) Galfimbul 42570699103.96 GB 0 0 1486030860

13:21

2-Фев-17

Зарубежные сериалы ·· Черные паруса / Black Sails / Сезон: 4 / Серии: 1 из 10 (Нил Маршалл, Сэм Миллер, Т.Дж. Скотт) [2017, США, ЮАР, драма, приключения, WEBRip] MVO (LostFilm) Galfimbul 734369792700 MB 0 0 1485998249

04:17

2-Фев-17

bot

Раздача обновлена!
Перекачайте торрент-файл.

bot

Раздача обновлена!
Перекачайте торрент-файл.

bot

Раздача обновлена!
Перекачайте торрент-файл.

bot

Раздача обновлена!
Перекачайте торрент-файл.

bot

Раздача обновлена!
Перекачайте торрент-файл.

bot

Раздача обновлена!
Перекачайте торрент-файл.

bot

Раздача обновлена!
Перекачайте торрент-файл.

bot

Раздача обновлена!
Перекачайте торрент-файл.

bot

Раздача обновлена!
Перекачайте торрент-файл.

Хотите добавить комментарий к записи скачать торрент Черные паруса Black Sails

!Обратная связь