Скачать через торрент Меч чужака Stranger: Mukou Hadan бесплатно Аниме Все серии на русском torrent

Если у вас наблюдаются проблемы со скриншотами, переходом по ссылками, скачиванием торрентов - проблемы в блокировщике рекламы AdBlock. #хорошегоДня!


Статистика раздачи
Размер:  6.57 GB   |    Зарегистрирован:  7 месяцев   |    .torrent скачан:  28 раз   |   
Раздают:  1  
   
Загрузка...
 
Автор Сообщение

Galfimbul

avatar Galfimbul


<span class="post-font-sans1">Меч чужака / Stranger: Mukou Hadan / Sword of the Stranger</span>
Год выпуска: 2007
Страна: Япония
Жанр: приключения, фантастика
Тип: Movie
Продолжительность: 102 мин
Режиссёр: Андо Масахиро
Сценарий: Такаяма Фумихико
Студия: BONES
Озвучка: <span class="post-font-sans1">Сэмпл</span>
Многоголосная KANSAI Studio
Многоголосная Shinobi участники: (Hattori Hanzo, Lord Alukart, =dmk=, Lunifera)
Субтитры: есть
русские (внешние) ASS полные
от BakaNyaka & KAnycTA (ass)
от Fidelis (srt)
английские (встроенные) ASS
THORA
Описание: Маленький мальчик, чьим единственным другом остаётся верный пёс, удирает от погони. За ним охотятся люди местного князя, который вступил в сделку с посланцами из Китая. Никто не знает, что нужно странным чужакам, но они платят золотом, поэтому рабочие целыми днями трудятся над постройкой странного сооружения, а воины прочёсывают ближайшие деревни. Между тем их добыча находит себе защитника: странного мужчину со шрамами на лице. Его меч крепко привязан к ножнам, но даже с таким полуоружием незнакомец остаётся опасным противником. Он нанимается проводить мальчика до храма, где беглец ожидает найти убежище, однако эта работа оказывается более важной для телохранителя, чем это казалось поначалу…

Полнометражный фильм студии BONES состоит не только из сражений и схваток, хотя им отведено немало времени. Самое главное здесь не экшен и динамичное кровопролитие, а поиск своего места в жизни, который касается каждого. Дружба и преданность, цели, которые ведут людей, и пустота в душе, которой некуда стремиться, жажда бессмертия и простое желание просто дожить до следующего дня – всё это воплощено в сюжетных линиях картины.
© Расселл Д. Джонс, World Art
Качество: BDRip
Релиз/Автор рипа: THORA
Совместимость с бытовыми плеерами: Нет
Наличие линковки: Нет
Тип видео: без хардсаба
Формат: MKV
Видео: x264, 1920x1080, (16/9), ~7000кбит/с, 23.976fps, 8 bit
Аудио #1 (внешняя) русская - AC3, 6 ch, 384кбит/с, 48000Hz Shinobi
Аудио #2 (внешняя) русская - AAC, 2 ch, ~300кбит/с, 48000Hz KANSAI Studio
Аудио #3 (в контейнере) японская - DTS, 6 ch, 1510кбит/с, 48000Hz
* Чтобы смотреть с озвучкой, необходимо из папки к примеру [Shinobi] переписать файл в папку, где находятся видео файл. Далее, следует запустить плеер и переключиться на mka-дорожку. Подробное описание <a href="viewtopic.php?t=2403326" class="postLink">здесь</a>
* Чтобы смотреть с субтитрами, необходимо из папки к примеру [BakaNyaka & KAnycTA] переписать файл в папку, где находятся видео файл. В большинстве плееров, одноимённые субтитры подключатся автоматически.

<a href="viewtopic.php?t=990027" class="postLink">...990027</a>
<a href="viewtopic.php?t=1354732" class="postLink">...1354732</a>
- альтернативная озвучка
<a href="viewtopic.php?t=918144" class="postLink">...918144</a> - BDRip
<a href="viewtopic.php?t=885444" class="postLink">...885444</a> - 1080p


Общее
Уникальный идентификатор : 187447594987621973810111892474703130073 (0x8D0517F76A3CFBFD84C9CB0C35402DD9)
Полное имя : C:\Торренты №2\Sword of the Stranger [BDRip 1080p]\Sword of the Stranger.mkv
Формат : Matroska
Версия формата : Version 2
Размер файла : 6,07 Гбайт
Продолжительность : 1 ч. 42 м.
Общий поток : 8512 Кбит/сек
Дата кодирования : UTC 2015-07-09 09:26:42
Программа кодирования : mkvmerge v2.9.7 ('Tenderness') built on Jul 1 2009 18:43:35
Библиотека кодирования : libebml v0.7.7 + libmatroska v0.8.1

Видео
Идентификатор : 1
Формат : AVC
Формат/Информация : Advanced Video Codec
Профиль формата : High@L5.1
Параметр CABAC формата : Да
Параметр ReFrames формата : 8 кадров
Идентификатор кодека : V_MPEG4/ISO/AVC
Продолжительность : 1 ч. 42 м.
Битрейт : 7000 Кбит/сек
Ширина : 1920 пикселей
Высота : 1080 пикселей
Соотношение сторон : 16:9
Режим частоты кадров : Постоянный
Частота кадров : 23,976 (23976/1000) кадра/сек
Цветовое пространство : YUV
Субдискретизация насыщенности : 4:2:0
Битовая глубина : 8 бит
Тип развёртки : Прогрессивная
Бит/(Пиксели*Кадры) : 0.141
Размер потока : 4,87 Гбайт (80%)
Библиотека кодирования : x264 core 60 r886M 1075536
Настройки программы : cabac=1 / ref=8 / deblock=1:-3:-3 / analyse=0x3:0x133 / me=umh / subme=6 / brdo=1 / mixed_ref=1 / me_range=16 / chroma_me=1 / trellis=0 / 8x8dct=1 / cqm=2 / deadzone=21,11 / chroma_qp_offset=0 / threads=3 / nr=0 / decimate=0 / mbaff=0 / fgo=4 / bframes=8 / b_pyramid=1 / b_adapt=1 / b_bias=0 / direct=1 / wpredb=1 / bime=1 / keyint=250 / keyint_min=25 / scenecut=40(pre) / rc=2pass / bitrate=7000 / ratetol=1.0 / rceq='blurCplx^(1-qComp)' / qcomp=1.00 / qpmin=8 / qpmax=51 / qpstep=4 / cplxblur=20.0 / qblur=0.5 / vbv_maxrate=24000 / vbv_bufsize=20000 / ip_ratio=1.40 / pb_ratio=1.20 / aq=2:0.80
Язык : Japanese
Default : Да
Forced : Нет

Аудио
Идентификатор : 2
Формат : DTS
Формат/Информация : Digital Theater Systems
Режим : 16
Параметр Endianness формата : Big
Идентификатор кодека : A_DTS
Продолжительность : 1 ч. 42 м.
Вид битрейта : Постоянный
Битрейт : 1510 Кбит/сек
Каналы : 6 каналов
Расположение каналов : Front: L C R, Side: L R, LFE
Частота : 48,0 КГц
Частота кадров : 93,750 кадра/сек (512 spf)
Битовая глубина : 24 бит
Метод сжатия : С потерями
Размер потока : 1,08 Гбайт (18%)
Язык : Japanese
Default : Да
Forced : Нет

Текст
Идентификатор : 3
Формат : ASS
Идентификатор кодека : S_TEXT/ASS
Идентификатор кодека/Информация : Advanced Sub Station Alpha
Метод сжатия : Без потерь
Язык : English
Default : Да
Forced : Нет

<div class="clear" style="height: 8px;"></div>

Трекер:  [ 30-Янв-2017 09:00 ]

  

Скачать .torrent

Размер .torrent файла 17 KB


Размер: 6.57 GB
Хэш (hash) релиза: e1b135c0d2cb582e6cbe1ec5293f095148150806
Подписка на обновления:

Еще никто не оставлял запись к записи скачать торрент Меч чужака Stranger: Mukou Hadan . Будь первым!

!Обратная связь