Скачать через торрент Черные паруса Black Sails Фильм бесплатно в хорошем качестве torrent

Скачивайте на UnionPeer.org фильмы через торрент без регистрации. Новинки кино в хорошем качестве через торрент. На UnionPeer.org можно скачать через торрент фильмы 2014 и 2015 годов. Самые новые фильмы.

Скачать торрент Черные паруса Black Sails бесплатно через .torrent фильм мультфильм сериал

Статистика раздачи
Размер:  36.27 GB   |    Зарегистрирован:  1 месяц 24 дня   |    .torrent скачан:  533 раза   |   
Раздают:  1  
   
 
Автор Сообщение

Galfimbul

avatar Galfimbul



Чёрные паруса / Black Sails
3 сезон
Год выпуска: 2017
Страна:США, ЮАР
Жанр: драма, приключения
Продолжительность: ~55-60 мин
Перевод: профессиональный многоголосый закадровый (Amedia)
Режиссёры: Алик Сахаров, Лукас Эттлин, Стефан Шварц, Стив Бойум, Роб Бэйли
В ролях: Тоби Стивенс, Ханна Нью, Люк Арнольд, Джессика Паркер Кеннеди, Том Хоппер, Зак Макгоун, Тоби Шмитц, Клара Пэджет, Хаким Кае-Казим, Луиз Барнс, Патрик Листер...
Описание: 1715 год. Золотой век — вершина пиратства в Карибском море. Остров бывшей британской колонии Нью-Провиденс является территорией беззакония, контролируемый самыми известными пиратскими капитанами в истории. Самым грозным из них является капитан Флинт.
Но британский флот возвращается в эти воды, угрожая уничтожить Флинта и его команду. Движимый глубокими, сложными, даже романтическими мотивами, Флинт становится союзником с грозной Элеонорой Гатри, дочерью местного вора в законе, который превращает добычу пиратов в прибыль. Вместе они создают план, охотясь за высшей наградой, выиграв которую, они остановят захват своего дома и обеспечат их выживание.
Им противостоит ряд соперников: конкурент капитана, завидующий власти Флинта, отец Элеоноры, чьи амбиции на острове приводят к конфликту с дочерью, и молодой моряк, Джон Сильвер, недавно принятый в экипаж Флинта, которому каким-то образом удаётся постоянно срывать планы своего капитана.


Качество: WEBRip 1080p
Формат: MKV
Видео: AVC, 1920x1080 (16:9), 23,976 fps, ~10000 kbps
Аудио Rus: AC3, 48 kHz, 2 ch, 192 kbps, CBR
Аудио Eng: AC3, 48 kHz, 6 ch, 384 kbps, CBR
Субтитры: русские
Общее
Уникальный идентификатор : 224666360525299032793681318926767532128 (0xA9052AC8965035DD968121126C7EA860)
Полное имя : X:\ATorrent\Black.Sails.S04E01.1080p.mkv
Формат : Matroska
Версия формата : Version 4 / Version 2
Размер файла : 4,64 Гбайт
Продолжительность : 1 ч. 0 м.
Общий поток : 11,0 Мбит/сек
Дата кодирования : UTC 2017-01-30 04:37:28
Программа кодирования : mkvmerge v8.3.0 ('Over the Horizon') 64bit
Библиотека кодирования : libebml v1.3.1 + libmatroska v1.4.2

Видео
Идентификатор : 1
Формат : AVC
Формат/Информация : Advanced Video Codec
Профиль формата : High@L4.1
Параметр CABAC формата : Да
Параметр ReFrames формата : 4 кадра
Идентификатор кодека : V_MPEG4/ISO/AVC
Продолжительность : 1 ч. 0 м.
Битрейт : 9998 Кбит/сек
Ширина : 1920 пикселей
Высота : 1080 пикселей
Соотношение сторон : 16:9
Режим частоты кадров : Постоянный
Частота кадров : 23,976 (24000/1001) кадра/сек
Цветовое пространство : YUV
Субдискретизация насыщенности : 4:2:0
Битовая глубина : 8 бит
Тип развёртки : Прогрессивная
Бит/(Пиксели*Кадры) : 0.201
Размер потока : 4,20 Гбайт (90%)
Библиотека кодирования : x264 core 148 r2744+8 b97ae06 / tmod bb0ae40 X86_64
Настройки программы : cabac=1 / ref=4 / deblock=1:-3:-3 / analyse=0x3:0x133 / me=umh / subme=11 / psy=1 / fade_compensate=0.00 / psy_rd=1.05:0.15 / mixed_ref=1 / me_range=48 / chroma_me=1 / trellis=2 / 8x8dct=1 / cqm=0 / deadzone=6,6 / fast_pskip=0 / chroma_qp_offset=-3 / threads=22 / lookahead_threads=5 / sliced_threads=0 / nr=0 / decimate=0 / interlaced=0 / bluray_compat=0 / constrained_intra=0 / fgo=0 / bframes=10 / b_pyramid=2 / b_adapt=2 / b_bias=0 / direct=3 / weightb=1 / open_gop=0 / weightp=2 / keyint=250 / keyint_min=23 / scenecut=40 / intra_refresh=0 / rc=crf / mbtree=0 / crf=17.0000 / qcomp=0.70 / qpmin=0:0:0 / qpmax=69:69:69 / qpstep=4 / ip_ratio=1.10 / pb_ratio=1.10 / aq=3:0.85 / aq-sensitivity=10.00 / aq-factor=1.00:1.00:1.00 / aq2=0 / aq3=0
Язык : English
Default : Да
Forced : Нет

Аудио #1
Идентификатор : 2
Формат : AC-3
Формат/Информация : Audio Coding 3
Расширение режима : CM (complete main)
Параметр Endianness формата : Big
Идентификатор кодека : A_AC3
Продолжительность : 1 ч. 0 м.
Вид битрейта : Постоянный
Битрейт : 192 Кбит/сек
Каналы : 2 канала
Расположение каналов : Front: L R
Частота : 48,0 КГц
Частота кадров : 31,250 кадров/сек (1536 spf)
Метод сжатия : С потерями
Размер потока : 82,5 Мбайт (2%)
Заголовок : SDI Media
Язык : Russian
Default : Да
Forced : Нет

Аудио #2
Идентификатор : 3
Формат : E-AC-3
Формат/Информация : Audio Coding 3
Параметр Endianness формата : Big
Идентификатор кодека : A_EAC3
Продолжительность : 1 ч. 0 м.
Вид битрейта : Постоянный
Битрейт : 640 Кбит/сек
Каналы : 6 каналов
Расположение каналов : Front: L C R, Side: L R, LFE
Частота : 48,0 КГц
Частота кадров : 187,500 кадров/сек (256 spf)
Метод сжатия : С потерями
Размер потока : 275 Мбайт (6%)
Язык : English
Default : Нет
Forced : Нет

Текст #1
Идентификатор : 4
Формат : UTF-8
Идентификатор кодека : S_TEXT/UTF8
Идентификатор кодека/Информация : UTF-8 Plain Text
Заголовок : Russian
Язык : Russian
Default : Нет
Forced : Нет

Текст #2
Идентификатор : 5
Формат : UTF-8
Идентификатор кодека : S_TEXT/UTF8
Идентификатор кодека/Информация : UTF-8 Plain Text
Заголовок : English
Язык : English
Default : Нет
Forced : Нет

Текст #3
Идентификатор : 6
Формат : UTF-8
Идентификатор кодека : S_TEXT/UTF8
Идентификатор кодека/Информация : UTF-8 Plain Text
Заголовок : English (SDH)
Язык : English
Default : Нет
Forced : Нет
Когда раздача ведётся путём добавления новых серий, при каждом добавлении создаётся новый торрент. Чтобы начать докачку новой серии, пользователям необходимо сделать следующее:
(1) остановить скачивание,
(2) удалить старый торрент у себя из клиента (старые серии удалять не надо),
(3) скачать новый торрент и запустить его у себя в клиенте вместо старого, при этом указать клиенту путь в старую папку, куда и должно происходить скачивание новых серий.
Ваш клиент при этом должен произвести хеширование (проверку) старой папки (если не производит сам - помогите ему сделать это), и будет докачивать только те серии, которых у вас ещё нет. Старые серии при этом не удаляются, а продолжают раздаваться!
Если вы уже удалили старые серии, то предотвратить повторную закачку старых серий можно, отжав галочку в соответствующих местах при запуске нового торрента. По возможности, желательно не удалять старые серии как можно дольше, чтобы релизёр не столько продолжал раздавать старые серии, а смог сконцентрироваться на новых.


Трекер:  [ 04-Апр-2017 10:31 ]

  

Скачать .torrent

Размер .torrent файла 182 KB


Размер: 36.27 GB
Хэш (hash) релиза: 7708ef31bc84929b89aaa179948ac695e46dc3d7
Подписка на обновления:

Торренты, похожие на Черные паруса Black Sails скачать торрент

Форум Название Автор Размер S L Добавлен
Зарубежные сериалы ·· Черные паруса / Black Sails / Сезон: 4 / Серии: 1-10 из 10 (Нил Маршалл, Сэм Миллер, Т.Дж. Скотт) [2017, США, ЮАР, драма, приключения, WEBRip] MVO (Amedia) + Original + Subs (Rus, Eng) Galfimbul 76107154367.09 GB 0 0 1485764531

11:22

30-Янв-17

Зарубежные сериалы ·· Черные паруса / Black Sails / Сезон: 4 / Серии: 1-7 из 10 (Нил Маршалл, Сэм Миллер, Т.Дж. Скотт) [2017, США, ЮАР, Драма, приключения, WEBRip 1080p] MVO (Baibako) Original + Eng Subs Galfimbul 3070121969428.59 GB 0 0 1489365665

03:41

13-Мар-17

Зарубежные сериалы ·· Черные паруса / Black Sails / Сезон: 4 / Серии: 1-6 из 10 (Нил Маршалл, Сэм Миллер, Т.Дж. Скотт) [2017, США, ЮАР, Драма, приключения, WEBRip] MVO (Baibako) + Original Galfimbul 47219548164.4 GB 2 0 1488821430

20:30

6-Мар-17

Зарубежные сериалы ·· Черные паруса / Black Sails / Сезон: 4 / Серии: 1 из 10 (Нил Маршалл, Сэм Миллер, Т.Дж. Скотт) [2017, США, ЮАР, Драма, приключения, WEBRip 1080p] MVO (LostFilm) + Original + Subs (Rus,Eng) Galfimbul 50647130894.72 GB 0 0 1486036148

14:49

2-Фев-17

Зарубежные сериалы ·· Черные паруса / Black Sails / Сезон: 4 / Серии: 1 из 10 (Нил Маршалл, Сэм Миллер, Т.Дж. Скотт) [2017, США, ЮАР, драма, приключения, WEBRip 720p] MVO (AMS) + Original Eng + Subs (Rus, Eng) Galfimbul 26781883832.49 GB 0 0 1486030872

13:21

2-Фев-17

Зарубежные сериалы ·· Черные паруса / Black Sails / Сезон: 4 / Серии: 1 из 10 (Нил Маршалл, Сэм Миллер, Т.Дж. Скотт) [2017, США, ЮАР, драма, приключения, WEBRip 1080p] MVO (AMS) + Original Eng + Subs (Rus, Eng) Galfimbul 42570699103.96 GB 0 0 1486030860

13:21

2-Фев-17

Зарубежные сериалы ·· Черные паруса / Black Sails / Сезон: 4 / Серии: 1 из 10 (Нил Маршалл, Сэм Миллер, Т.Дж. Скотт) [2017, США, ЮАР, драма, приключения, WEBRip] MVO (LostFilm) Galfimbul 734369792700 MB 0 0 1485998249

04:17

2-Фев-17

bot

Раздача обновлена!
Перекачайте торрент-файл.

bot

Раздача обновлена!
Перекачайте торрент-файл.

bot

Раздача обновлена!
Перекачайте торрент-файл.

bot

Раздача обновлена!
Перекачайте торрент-файл.

bot

Раздача обновлена!
Перекачайте торрент-файл.

bot

Раздача обновлена!
Перекачайте торрент-файл.

bot

Раздача обновлена!
Перекачайте торрент-файл.

bot

Раздача обновлена!
Перекачайте торрент-файл.

bot

Раздача обновлена!
Перекачайте торрент-файл.

Хотите добавить комментарий к записи скачать торрент Черные паруса Black Sails

!Обратная связь