Скачать через торрент музыку бесплатно без регистрации torrent

Если у вас наблюдаются проблемы со скриншотами, переходом по ссылками, скачиванием торрентов - проблемы в блокировщике рекламы AdBlock. #хорошегоДня!


Статистика раздачи
Размер:  330 MB   |    Зарегистрирован:  7 месяцев   |    .torrent скачан:  13 раз   |   
Раздают:  1  
   
Загрузка...
 
Автор Сообщение

Galfimbul

avatar Galfimbul


Снежная Королева (Новогодняя музыкальная сказка)





Жанр: Score/SoundTrack/Pop
Носитель: CD
Страна-производитель диска (релиза): Россия
Композитор: Игорь Крутой
Год выпуска диска: 2003
Год выпуска фильма: 2003
Аудиокодек: <span class="post-font-cursive1">Monkeys <span class="post-font-cursive1">A</span>udio <span class="post-font-cursive1">C</span>ompressor (*.ape)
Тип рипа: <span class="post-font-cursive1">tracks</span> + <span class="post-font-cursive1">cue</span>
Битрейт аудио: L o s s L e s s
Продолжительность: 00:47:42
Источник (релизер): собственный рип
Наличие сканов в содержимом раздачи: добавлены





01 ... <span class="post-font-cursive1">Симфонический оркестр - Увертюра</span> __ (02:52)
02 ... <span class="post-font-cursive1">Н. Бабкина - Речка</span> __ (03:00)
03 ... <span class="post-font-cursive1">А. Данилко (В. СердЮчка) - Северные девки горячей</span> __ (03:01)
04 ... <span class="post-font-cursive1">К. Орбакайте - Это просто сон</span> __ (03:48)
05 ... <span class="post-font-cursive1">Г. Хазанов + К. Новикова - Карл у Клары украл кораллы</span> __ (02:36)
06 ... <span class="post-font-cursive1">С. Ротару - Ландыши</span> __ (04:31)
07 ... <span class="post-font-cursive1">Л. Вайкуле - Только раз</span> __ (04:07)
08 ... <span class="post-font-cursive1">Н. Басков - Воздушный замок</span> __ (05:06)
09 ... <span class="post-font-cursive1">В. Винокур - Кушай</span> __ (03:28)
10 ... <span class="post-font-cursive1">К. Орбакайте - Не с тобой</span> __ (03:08)
11 ... <span class="post-font-cursive1">Дискотека Авария - Песенка разбойников</span> __ (02:55)
12 ... <span class="post-font-cursive1">Н. Ветлицкая + В. Азарх - Фонари</span> __ (04:46)
13 ... <span class="post-font-cursive1">К. Орбакайте + Н. Басков - Когда прощаются со сказкой</span> __ (04:24)</span>
Exact Audio Copy V1.3 from 2. September 2016

Отчёт EAC об извлечении, выполненном 9. декабря 2016, 14:39

Various / Снежная Королева (Новогодняя музыкальная сказка)

Дисковод: TSSTcorpCDDVDW SE-S084D Adapter: 1 ID: 3

Режим чтения : ДостоверностьИспользование точного потока : ДаОтключение кэша аудио : ДаИспользование указателей C2 : Нет

Коррекция смещения при чтении : 6Способность читать области Lead-in и Lead-out : НетЗаполнение пропущенных сэмплов тишиной : ДаУдаление блоков с тишиной в начале и конце : НетПри вычислениях CRC использовались нулевые сэмплы : ДаИнтерфейс : Встроенный Win32-интерфейс для Win NT/2000Обработка зазоров : Добавлено к предыдущему треку

Выходной формат : Пользовательский кодировщикВыбранный битрейт : 768 kBit/sКачество : ВысокийДобавление ID3-тега : НетУтилита сжатия : M onkey's A udio C ompressor.exeДополнительные параметры : %dest% -t "DiscID=%cddbid%" -t "Comment= ~ ^ ` @ трудился РУ€_ик @ ` ^ ~ " -t "Track=%tracknr2%/%numtracks%" -t "Artist=%artist%" -t "Title=%title%" -t "Album=%albumtitle%" -t "AlbumArtist=%albumartist%" -t "Year=%year%" -t "Genre=%genre%" MAC.exe %source% %dest% -c4000 -V

TOC извлечённого CD

Трек | Старт | Длительность | Начальный сектор | Конечный сектор --------------------------------------------------------------------- 1 | 0:00.00 | 2:51.68 | 0 | 12892 2 | 2:51.68 | 2:59.70 | 12893 | 26387 3 | 5:51.63 | 3:00.55 | 26388 | 39942 4 | 8:52.43 | 3:48.28 | 39943 | 57070 5 | 12:40.71 | 2:36.17 | 57071 | 68787 6 | 15:17.13 | 4:31.14 | 68788 | 89126 7 | 19:48.27 | 4:06.44 | 89127 | 107620 8 | 23:54.71 | 5:06.23 | 107621 | 130593 9 | 29:01.19 | 3:28.18 | 130594 | 146211 10 | 32:29.37 | 3:08.26 | 146212 | 160337 11 | 35:37.63 | 2:54.47 | 160338 | 173434 12 | 38:32.35 | 4:46.11 | 173435 | 194895 13 | 43:18.46 | 4:23.68 | 194896 | 214688

Трек 1

Имя файла D:\123\01 - Симфонический оркестр - Увертюра.wav

Длина предзазора 0:00:02.00

Пиковый уровень 99.9 % Скорость извлечения 1.4 X Качество трека 100.0 % CRC теста 87802789 CRC копии 87802789 Точное извлечение (достоверность 1) [A3AF9C48] (AR v1) Копирование... OK

Трек 2

Имя файла D:\123\02 - Н. Бабкина - Речка.wav

Длина предзазора 0:00:02.03

Пиковый уровень 98.8 % Скорость извлечения 1.7 X Качество трека 99.9 % CRC теста 07181EEB CRC копии 07181EEB Точное извлечение (достоверность 1) [C4360244] (AR v1) Копирование... OK

Трек 3

Имя файла D:\123\03 - А. Данилко (В. СердЮчка) - Северные девки горячей.wav

Длина предзазора 0:00:02.03

Пиковый уровень 98.8 % Скорость извлечения 1.4 X Качество трека 100.0 % CRC теста 7C460D2F CRC копии 7C460D2F Точное извлечение (достоверность 1) [D7B94C4F] (AR v1) Копирование... OK

Трек 4

Имя файла D:\123\04 - К. Орбакайте - Это просто сон.wav

Длина предзазора 0:00:01.70

Пиковый уровень 100.0 % Скорость извлечения 1.4 X Качество трека 99.9 % CRC теста 847586F6 CRC копии 847586F6 Точное извлечение (достоверность 1) [306A26A6] (AR v1) Копирование... OK

Трек 5

Имя файла D:\123\05 - Г. Хазанов + К. Новикова - Карл у Клары украл кораллы.wav

Длина предзазора 0:00:01.73

Пиковый уровень 98.8 % Скорость извлечения 1.9 X Качество трека 100.0 % CRC теста 637AF897 CRC копии 637AF897 Точное извлечение (достоверность 1) [24B22319] (AR v1) Копирование... OK

Трек 6

Имя файла D:\123\06 - С. Ротару - Ландыши.wav

Длина предзазора 0:00:02.09

Пиковый уровень 98.8 % Скорость извлечения 1.4 X Качество трека 100.0 % CRC теста A8D6860C CRC копии A8D6860C Точное извлечение (достоверность 1) [079A62F8] (AR v1) Копирование... OK

Трек 7

Имя файла D:\123\07 - Н. Басков - Только раз.wav

Длина предзазора 0:00:02.00

Пиковый уровень 98.8 % Скорость извлечения 3.2 X Качество трека 100.0 % CRC теста DF2E0DE4 CRC копии DF2E0DE4 Точное извлечение (достоверность 1) [E2F85021] (AR v1) Копирование... OK

Трек 8

Имя файла D:\123\08 - В. Винокур - Воздушный замок.wav

Длина предзазора 0:00:01.74

Пиковый уровень 97.0 % Скорость извлечения 3.9 X Качество трека 100.0 % CRC теста 99631676 CRC копии 99631676 Точное извлечение (достоверность 1) [A7C93930] (AR v1) Копирование... OK

Трек 9

Имя файла D:\123\09 - Н. Басков - Кушай.wav

Длина предзазора 0:00:02.06

Пиковый уровень 98.7 % Скорость извлечения 0.5 X Качество трека 100.0 % CRC теста C48528CA CRC копии C48528CA Точное извлечение (достоверность 1) [DC1A5727] (AR v1) Копирование... OK

Трек 10

Имя файла D:\123\10 - К. Орбакайте - Не с тобой.wav

Длина предзазора 0:00:01.71

Пиковый уровень 99.4 % Скорость извлечения 4.1 X Качество трека 100.0 % CRC теста D92B2EBE CRC копии D92B2EBE Точное извлечение (достоверность 1) [A96550D6] (AR v1) Копирование... OK

Трек 11

Имя файла D:\123\11 - Дискотека Авария - Песенка разбойников.wav

Длина предзазора 0:00:02.01

Пиковый уровень 100.0 % Скорость извлечения 3.1 X Качество трека 99.9 % CRC теста 878C91E3 CRC копии 878C91E3 Точное извлечение (достоверность 1) [FBEDEC29] (AR v1) Копирование... OK

Трек 12

Имя файла D:\123\12 - Н. Ветлицкая + В. Азарх - Фонари.wav

Длина предзазора 0:00:02.06

Пиковый уровень 96.3 % Скорость извлечения 3.7 X Качество трека 99.9 % CRC теста 38ECB598 CRC копии 38ECB598 Точное извлечение (достоверность 1) [E1D10D0C] (AR v1) Копирование... OK

Трек 13

Имя файла D:\123\13 - К. Орбакайте + Н. Басков - Когда прощаются со сказкой.wav

Длина предзазора 0:00:01.70

Пиковый уровень 98.8 % Скорость извлечения 4.6 X Качество трека 100.0 % CRC теста CD50CFC9 CRC копии CD50CFC9 Точное извлечение (достоверность 1) [FD6394A6] (AR v1) Копирование... OK

Все треки извлечены точно

Ошибок не произошло

Конец отчёта

---- CUETools DB Plugin V2.1.6

[CTDB TOCID: fgAP0Lot39lD1RzqGUfJ6kXF6uM-] foundSubmit result: fgAP0Lot39lD1RzqGUfJ6kXF6uM- has been uploadedTrack | CTDB Status 1 | (1/1) Differs in 15285 samples @01:31:20-01:31:34 2 | (1/1) Accurately ripped 3 | (1/1) Accurately ripped 4 | (1/1) Accurately ripped 5 | (1/1) Accurately ripped 6 | (1/1) Accurately ripped 7 | (1/1) Accurately ripped 8 | (1/1) Accurately ripped 9 | (1/1) Accurately ripped 10 | (1/1) Accurately ripped 11 | (1/1) Accurately ripped 12 | (1/1) Accurately ripped 13 | (1/1) Accurately rippedIf you are sure that your rip contains errors, you can use CUETools to repair it.

==== Контрольная сумма отчёта 01F9193B30FADA5335809C1528427D5094C31C734EAC0EC71B9BC88E2574E293 ====
REM GENRE PopREM DATE 2003REM DISCID 9F0B2E0DPERFORMER "Various"TITLE "Снежная Королева (Новогодняя музыкальная сказка)"FILE "01 - Симфонический оркестр - Увертюра.wav" WAVE TRACK 01 AUDIO TITLE "Увертюра" PERFORMER "Симфонический оркестр" INDEX 01 00:00:00 TRACK 02 AUDIO TITLE "Речка" PERFORMER "Н. Бабкина" INDEX 00 02:49:65FILE "02 - Н. Бабкина - Речка.wav" WAVE INDEX 01 00:00:00 TRACK 03 AUDIO TITLE "Северные девки горячей" PERFORMER "А. Данилко (В. СердЮчка)" INDEX 00 02:57:67FILE "03 - А. Данилко (В. СердЮчка) - Северные девки горячей.wav" WAVE INDEX 01 00:00:00 TRACK 04 AUDIO TITLE "Это просто сон" PERFORMER "К. Орбакайте" INDEX 00 02:58:60FILE "04 - К. Орбакайте - Это просто сон.wav" WAVE INDEX 01 00:00:00 TRACK 05 AUDIO TITLE "Карл у Клары украл кораллы" PERFORMER "Г. Хазанов + К. Новикова" INDEX 00 03:46:30FILE "05 - Г. Хазанов + К. Новикова - Карл у Клары украл кораллы.wav" WAVE INDEX 01 00:00:00 TRACK 06 AUDIO TITLE "Ландыши" PERFORMER "С. Ротару" INDEX 00 02:34:08FILE "06 - С. Ротару - Ландыши.wav" WAVE INDEX 01 00:00:00 TRACK 07 AUDIO TITLE "Только раз" PERFORMER "Л. Вайкуле" INDEX 00 04:29:14FILE "07 - Л. Вайкуле - Только раз.wav" WAVE INDEX 01 00:00:00 TRACK 08 AUDIO TITLE "Воздушный замок" PERFORMER "Н. Басков" INDEX 00 04:04:45FILE "08 - Н. Басков - Воздушный замок.wav" WAVE INDEX 01 00:00:00 TRACK 09 AUDIO TITLE "Кушай" PERFORMER "В. Винокур" INDEX 00 05:04:17FILE "09 - В. Винокур - Кушай.wav" WAVE INDEX 01 00:00:00 TRACK 10 AUDIO TITLE "Не с тобой" PERFORMER "К. Орбакайте" INDEX 00 03:26:22FILE "10 - К. Орбакайте - Не с тобой.wav" WAVE INDEX 01 00:00:00 TRACK 11 AUDIO TITLE "Песенка разбойников" PERFORMER "Дискотека Авария" INDEX 00 03:06:25FILE "11 - Дискотека Авария - Песенка разбойников.wav" WAVE INDEX 01 00:00:00 TRACK 12 AUDIO TITLE "Фонари" PERFORMER "Н. Ветлицкая + В. Азарх" INDEX 00 02:52:41FILE "12 - Н. Ветлицкая + В. Азарх - Фонари.wav" WAVE INDEX 01 00:00:00 TRACK 13 AUDIO TITLE "Когда прощаются со сказкой" PERFORMER "К. Орбакайте + Н. Басков" INDEX 00 04:44:16FILE "13 - К. Орбакайте + Н. Басков - Когда прощаются со сказкой.wav" WAVE INDEX 01 00:00:00
CUE Corrector v.6.11.3 (build 505)------------------------------------------------------------------------Various / Снежная Королева (Новогодняя музыкальная сказка)

Folder: VA - Снежная Королева (2003) APEaudio files: 01 - Симфонический оркестр - Увертюра [02:51.68, APE, 44100Hz, Stereo, 16bit; 15,25 MB (15 986 117 bytes)] 02 - Н. Бабкина - Речка [02:59.70, APE, 44100Hz, Stereo, 16bit; 19,23 MB (20 166 748 bytes)] 03 - А. Данилко (В. СердЮчка) - Северные девки горячей [03:00.55, APE, 44100Hz, Stereo, 16bit; 20,05 MB (21 025 764 bytes)] 04 - К. Орбакайте - Это просто сон [03:48.28, APE, 44100Hz, Stereo, 16bit; 24,85 MB (26 053 188 bytes)] 05 - Г. Хазанов + К. Новикова - Карл у Клары украл кораллы [02:36.17, APE, 44100Hz, Stereo, 16bit; 17,00 MB (17 824 765 bytes)] 06 - С. Ротару - Ландыши [04:31.14, APE, 44100Hz, Stereo, 16bit; 31,48 MB (33 011 794 bytes)] 07 - Н. Басков - Только раз [04:06.44, APE, 44100Hz, Stereo, 16bit; 27,16 MB (28 476 623 bytes)] 08 - В. Винокур - Воздушный замок [05:06.23, APE, 44100Hz, Stereo, 16bit; 31,35 MB (32 872 191 bytes)] 09 - Н. Басков - Кушай [03:28.18, APE, 44100Hz, Stereo, 16bit; 23,18 MB (24 309 134 bytes)] 10 - К. Орбакайте - Не с тобой [03:08.26, APE, 44100Hz, Stereo, 16bit; 22,34 MB (23 427 672 bytes)] 11 - Дискотека Авария - Песенка разбойников [02:54.47, APE, 44100Hz, Stereo, 16bit; 21,92 MB (22 987 564 bytes)] 12 - Н. Ветлицкая + В. Азарх - Фонари [04:46.11, APE, 44100Hz, Stereo, 16bit; 32,16 MB (33 723 587 bytes)] 13 - К. Орбакайте + Н. Басков - Когда прощаются со сказкой [04:23.68, APE, 44100Hz, Stereo, 16bit; 26,15 MB (27 422 202 bytes)]

Accuracy: -m0

File 01 - Симфонический оркестр - Увертюра - 100% CDDAFile 02 - Н. Бабкина - Речка - 100% CDDAFile 03 - А. Данилко (В. СердЮчка) - Северные девки горячей - 100% CDDAFile 04 - К. Орбакайте - Это просто сон - 100% CDDAFile 05 - Г. Хазанов + К. Новикова - Карл у Клары украл кораллы - 99% CDDAFile 06 - С. Ротару - Ландыши - 100% CDDAFile 07 - Н. Басков - Только раз - 100% CDDAFile 08 - В. Винокур - Воздушный замок - 100% CDDAFile 09 - Н. Басков - Кушай - 100% CDDAFile 10 - К. Орбакайте - Не с тобой - 100% CDDAFile 11 - Дискотека Авария - Песенка разбойников - 100% CDDAFile 12 - Н. Ветлицкая + В. Азарх - Фонари - 100% CDDAFile 13 - К. Орбакайте + Н. Басков - Когда прощаются со сказкой - 100% CDDA----- Summary: -----These tracks looks like CDDA with probability 100%.------------------------------------------------------------------------

ANALYZER: auCDtect: CD records authenticity detector, version 0.8.2 Copyright (c) 2004 Oleg Berngardt. All rights reserved. Copyright (c) 2004 Alexander Djourik. All rights reserved.

Time elapsed: 3 m 07 sLog created at December 09, 2016 14:52:15

=== 590E7611853E07851A64848FC249834843A18DAFDAED3AADFFB729AA9C0A2C35 ===

<a href="viewtopic.php?t=4398347" class="postLink">...4398347</a>







Трекер:  [ 28-Янв-2017 08:00 ]

  

Скачать .torrent

Размер .torrent файла 15 KB


Размер: 330 MB
Хэш (hash) релиза: 0cb65c2f820671783c4aa24a8900587c1980cc80

Еще никто не оставлял запись к записи скачать торрент . Будь первым!

!Обратная связь