Скачать через торрент Склифосовский Фильм бесплатно в хорошем качестве torrent

Скачивайте на UnionPeer.org фильмы через торрент без регистрации. Новинки кино в хорошем качестве через торрент. На UnionPeer.org можно скачать через торрент фильмы 2014 и 2015 годов. Самые новые фильмы.

Скачать торрент Склифосовский бесплатно через .torrent фильм мультфильм сериал

Если у вас наблюдаются проблемы со скриншотами, переходом по ссылками, скачиванием торрентов - проблемы в блокировщике рекламы AdBlock. #хорошегоДня!


Статистика раздачи
Размер:  18.9 GB   |    Зарегистрирован:  5 месяцев 27 дней   |    .torrent скачан:  126 раз   |   
Раздают:  1  
   
Загрузка...
 
Автор Сообщение

Galfimbul

avatar Galfimbul


Склифосовский (Склиф). Реанимация

Год выпуска: 2016
Производство: Кинокомпания "Русское"
Жанр: Драма, мелодрама
Продолжительность: 00:57:00
Субтитры: нет

Режиссёр: Юлия Краснова

В ролях: Максим Аверин, Мария Куликова, Дмитрий Миллер, Ольга Павловец, Лаура Кеосаян, Марина Могилевская, Андрей Барило, Владимир Жеребцов, Константин Юшкевич, Антон Эльдаров, Александр Сирин, Анна Якунина, Екатерина Травова, Александр Чернявский, Надежда Горелова, Владимир Довжик, Евгения Дмитриева, Елена Яковлева, Евгений Михеев, Сергей Жигунов, Евгения Калинец, Владимир Кошеваров, Андрей Гусев, Максим Битюков, Пётр Кудряшов, Наталья Чернявская

Описание: За судьбой легендарного доктора Брагина и его коллег из института Склифосовского несколько лет следила вся страна.
Спасая очередную жизнь, Брагин сам оказался на грани гибели.
Сотни тысяч поклонников сериала, вновь и вновь пересматривая финал «Склифосовского», вели нескончаемые споры в попытке ответить на один-единственный вопрос: «Жив ли их любимый герой?»
После долгих месяцев ожидания зрители, наконец, получат долгожданный ответ...
<a href="tracker.php?f=9&nm=%D0%A1%D0%BA%D0%BB%D0%B8%D1%84%D0%BE%D1%81%D0%BE%D0%B2%D1%81%D0%BA%D0%B8%D0%B9" class="postLink">Все раздачи сериала</a> / Сэмпл
Автор рипа:
Качество: WEBRip 1080p
Формат: MKV
Видео кодек: H.264
Аудио кодек: AC3
Видео: MPEG-4 AVC, 1920 x1080 (16:9), 25.000 fps, 2662 Kbps, 0.051 bits/pixel
Аудио: 48 kHz, AC3 Dolby Digital, 2 ch, 192 Kbps
Реклама: Нет
General

Complete name : Downloads\Sklifosovskiy.5.2016.WEB-DL.1080р.By.Olyanchik\01.Sklifosovskiy.5.2016.WEB-DL.1080р.By.Olyanchik.mkv
Format : Matroska
Format version : Version 4 / Version 2
File size : 1.16 GiB
Duration : 57mn 3s
Overall bit rate : 2 912 Kbps
Encoded date : UTC 2017-01-16 19:03:53
Writing application : mkvmerge v9.6.0 ('Slave To Your Mind') 64bit
Writing library : libebml v1.3.4 + libmatroska v1.4.5
DURATION : 00:57:03.121000000
NUMBER_OF_FRAMES : 98281
NUMBER_OF_BYTES : 82154892
_STATISTICS_WRITING_APP : mkvmerge v9.6.0 ('Slave To Your Mind') 64bit
_STATISTICS_WRITING_DATE_UTC : 2017-01-16 19:03:53
_STATISTICS_TAGS : BPS DURATION NUMBER_OF_FRAMES NUMBER_OF_BYTES
Video #1
ID : 1
Format : AVC
Format/Info : Advanced Video Codec
Format profile : High@L4.0
Format settings, CABAC : Yes
Format settings, ReFrames : 2 frames
Codec ID : V_MPEG4/ISO/AVC
Duration : 57mn 3s
Bit rate : 2 662 Kbps
Width : 1 920 pixels
Height : 1 080 pixels
Display aspect ratio : 16:9
Frame rate mode : Constant
Frame rate : 25.000 fps
Color space : YUV
Chroma subsampling : 4:2:0
Bit depth : 8 bits
Scan type : Progressive
Bits/(Pixel*Frame) : 0.051
Stream size : 1.06 GiB (91%)
Default : Yes
Forced : No
Color primaries : BT.709
Transfer characteristics : BT.709
Matrix coefficients : BT.709
Color range : Limited
DURATION : 00:57:03.040000000
NUMBER_OF_FRAMES : 85576
NUMBER_OF_BYTES : 1162938370
_STATISTICS_WRITING_APP : mkvmerge v9.6.0 ('Slave To Your Mind') 64bit
_STATISTICS_WRITING_DATE_UTC : 2017-01-16 19:03:53
_STATISTICS_TAGS : BPS DURATION NUMBER_OF_FRAMES NUMBER_OF_BYTES
Audio #2
ID : 2
Format : AC-3
Format/Info : Audio Coding 3
Mode extension : CM (complete main)
Format settings, Endianness : Big
Codec ID : A_AC3
Duration : 57mn 3s
Bit rate mode : Constant
Bit rate : 192 Kbps
Channel(s) : 2 channels
Channel positions : Front: L R
Sampling rate : 44.1 KHz
Bit depth : 16 bits
Compression mode : Lossy
Stream size : 78.3 MiB (7%)
Default : Yes
Forced : No


Трекер:  [ 27-Янв-2017 12:00 ]

  

Скачать .torrent

Размер .torrent файла 49 KB


Размер: 18.9 GB
Хэш (hash) релиза: cc597d3dec58c2e01a6d2ffa3408bfd209f8f65d
Подписка на обновления:

Торренты, похожие на Склифосовский скачать торрент

Форум Название Автор Размер S L Добавлен
Российские сериалы ·· Склифосовский. Реанимация / Серии: 1-8 из 16 (Юлия Краснова) [2016,мелодрама, SATRip-AVC] Galfimbul 49966177714.65 GB 0 0 1485101833

19:17

22-Янв-17

Российские сериалы ·· Склифосовский (Склиф) 5 Реанимация / Сезон 5 / Серии: 1-2 из 16 (Юлия Краснова) [2016, Россия, Драма, мелодрама, WEBRip] Galfimbul 14583234561.36 GB 0 0 1484599398

23:43

16-Янв-17

Российские сериалы ·· Склифосовский / Сезон: 1 / Серии: 1-24 из 24 (Андрей Селиванов) [2012, Драма, мелодрама, медицина, DVDRip] Galfimbul 1876241817617.47 GB 0 0 1477601422

23:50

27-Окт-16

Российские сериалы ·· Склифосовский / Сезон: 1 / Серии: 24 из 24 (Андрей Селиванов) [2012, HDTVRip, 576p] / Сезон: 1 / Серии: 1-24 из 24 (Андрей Селиванов) [2012, Драма, мелодрама, HDTVRip] Galfimbul 86568330378.06 GB 0 0 1442406211

15:23

16-Сен-15

Российские сериалы ·· Склифосовский (Склиф) 4 / Сезон 4 / Серии: 1-12 из 24 (Юлия Краснова) [2014, Россия, Драма, мелодрама, WEBRip1080p] Galfimbul 1712319686315.95 GB 0 0 1429045497

00:04

15-Апр-15

Российские сериалы ·· Склифосовский (Склиф) / Сезон: 4 / Серии: 1-12 из 24 (Юлия Краснова) [2014, Драма, мелодрама, SATRip] Galfimbul 77176294787.19 GB 0 0 1429029376

19:36

14-Апр-15

Российские сериалы ·· Склифосовский 4 / Сезон: 4 / Серии: 7-8 из 24 (Юлия Краснова) [2014(15), Драма, мелодрама, SATRip] Galfimbul 13185290241.23 GB 0 0 1428876126

01:02

13-Апр-15

Российские сериалы ·· Склифосовский (Склиф) 4 / Сезон 4 / Серии: 1-2 из 24 (Юлия Краснова) [2014, Россия, Драма, мелодрама, HDTVRip-AVC] Galfimbul 14748018991.37 GB 0 0 1428617054

01:04

10-Апр-15

Российские сериалы ·· Склифосовский (Склиф) 4 / Сезон 4 / Серии: 1-4 из 24 (Юлия Краснова) [2014, Россия, Драма, мелодрама, WEBRip 720p] Galfimbul 24629236872.29 GB 0 0 1428445937

01:32

8-Апр-15

Российские сериалы ·· Склифосовский (Склиф) 4 / Сезон 4 / Серии: 1-4 из 24 (Юлия Краснова) [2014, Россия, Драма, мелодрама, HDTV 1080i] Galfimbul 1127673312410.5 GB 0 0 1428444158

01:02

8-Апр-15

Российские сериалы ·· Склифосовский (Склиф) 4 / Сезон 4 / Серии: 1-4 из 24 (Юлия Краснова) [2014, Россия, Драма, мелодрама, HDTVRip] Galfimbul 23091265022.15 GB 0 0 1428440618

00:03

8-Апр-15

Российские сериалы ·· Склифосовский (Склиф) 4 / Серии: 1 из 24 (Юлия Краснова) [2014, Россия, Драма, мелодрама, HDTVRip] Galfimbul 577091132550 MB 0 0 1428352411

23:33

6-Апр-15

Российские сериалы ·· Склифосовский (Склиф) (3 сезон: 1-24 серии из 24) [2014, Драма, мелодрама, SATRip] Galfimbul 1613227448015.02 GB 0 0 1397470736

13:18

14-Апр-14

Российские сериалы ·· Склифосовский 2 / Сезон 2 / Серии: 1-24 из 24 (Юлия Краснова) [2013, Мелодрама, драма, SATRip] damien1990 1384419123212.89 GB 0 0 1365109310

00:01

5-Апр-13

Российские сериалы ·· Склифосовский (Склиф) / Серии: 1-24 из 24 (Андрей Селиванов) [2012, драма, мелодрама, DVDRip] Galfimbul 1876241817617.47 GB 0 0 1361696827

12:07

24-Фев-13

Российские сериалы ·· Склифосовский (Склиф) / Серии: 1-24 из 24 (Андрей Селиванов) [2012, Драма, мелодрама, HDTVRip 720p] Galfimbul 2634833891424.54 GB 0 0 1361696790

12:06

24-Фев-13

Российские сериалы ·· Склифосовский / Серии: 1-24 из 24 (Андрей Селиванов) [2012, Драма, мелодрама, SATRip-AVC] Galfimbul 1158476234510.79 GB 0 0 1361696699

12:04

24-Фев-13

Российские сериалы ·· Склифосовский (Склиф) / Серии: 1-24 из 24 (Андрей Селиванов) [2012, Россия, драма, мелодрама, 4xDVD9] R5 Original Rus Galfimbul 3279020851230.54 GB 0 0 1361696588

12:03

24-Фев-13

Российские сериалы ·· Склифосовский (Склиф) / Сезон: 1 / Серии: 1-24 из 24 (Андрей Селиванов) [2012, Россия, драма, мелодрама, SATRip] Galfimbul 1878645555217.5 GB 0 0 1361696557

12:02

24-Фев-13

Еще никто не оставлял запись к записи скачать торрент Склифосовский . Будь первым!

!Обратная связь