Скачать через торрент музыку Капитан Крюк Hook бесплатно без регистрации torrent

Если у вас наблюдаются проблемы со скриншотами, переходом по ссылками, скачиванием торрентов - проблемы в блокировщике рекламы AdBlock. #хорошегоДня!


Статистика раздачи
Размер:  673 MB   |    Зарегистрирован:  7 месяцев   |    .torrent скачан:  21 раз   |   
Раздают:  1  
   
Загрузка...
 
Автор Сообщение

Galfimbul

avatar Galfimbul


Капитан Крюк / Hook

Жанр: Score
Композитор: John Williams
Год выпуска диска: 2012
Год выпуска фильма: 1991
Производитель диска: USA
Издатель (лейбл): La-La Land Records
Номер по каталогу: LLLCD 1211

Аудиокодек: FLAC (*.flac)
Тип рипа: image+.cue
Битрейт аудио: lossless
Продолжительность: 02:20:32 (68.17; 72.15)
Источник: собственный рип
Наличие сканов в содержимом раздачи: да (600 dpi)

Треклист
01. Prologue [01:32.71]
02. We Don't Wanna Grow Up [01:50.39]
03. Banning Back Home [02:23.39]
04. Granny Wendy [02:57.21]
05. The Bedroom [01:06.63]
06. The Nursery [01:39.41]
07. The Watch [00:56.31]
08. Hook-Napped [03:56.13]
09. A Portrait Of Wendy [01:06.15]
10. The Arrival Of Tink / Flight To Neverland [06:03.33]
11. Presenting The Hook [02:59.68]
12. Pirates! [02:40.63]
13. Hook Challenges Peter [07:49.68]
14. From Mermaids To Lost Boys [05:13.32]
15. The Lost Boy Chase [03:35.60]
16. Smee's Plan [03:24.48]
17. Pan Is Challenged [01:20.03]
18. Hook's Lesson [03:08.34]
19. The Banquet [03:10.06]
20. The Never-Feast [04:41.31]
21. Hook's Madness [04:01.22]
22. Follow That Shadow [02:38.02]
Exact Audio Copy V1.0 beta 3 from 29. August 2011

EAC extraction logfile from 20. March 2013, 21:15

John Williams / Hook (Disc 1)

Used drive : TSSTcorpCDDVDW SH-S202H Adapter: 0 ID: 0

Read mode : SecureUtilize accurate stream : YesDefeat audio cache : YesMake use of C2 pointers : No

Read offset correction : 6Overread into Lead-In and Lead-Out : NoFill up missing offset samples with silence : YesDelete leading and trailing silent blocks : NoNull samples used in CRC calculations : YesUsed interface : Native Win32 interface for Win NT & 2000

Used output format : Internal WAV RoutinesSample format : 44.100 Hz; 16 Bit; Stereo

TOC of the extracted CD

Track | Start | Length | Start sector | End sector --------------------------------------------------------- 1 | 0:00.00 | 1:32.71 | 0 | 6970 2 | 1:32.71 | 1:50.39 | 6971 | 15259 3 | 3:23.35 | 2:23.39 | 15260 | 26023 4 | 5:46.74 | 2:57.21 | 26024 | 39319 5 | 8:44.20 | 1:06.63 | 39320 | 44332 6 | 9:51.08 | 1:39.41 | 44333 | 51798 7 | 11:30.49 | 0:56.31 | 51799 | 56029 8 | 12:27.05 | 3:56.13 | 56030 | 73742 9 | 16:23.18 | 1:06.15 | 73743 | 78707 10 | 17:29.33 | 6:03.33 | 78708 | 105965 11 | 23:32.66 | 2:59.68 | 105966 | 119458 12 | 26:32.59 | 2:40.63 | 119459 | 131521 13 | 29:13.47 | 7:49.68 | 131522 | 166764 14 | 37:03.40 | 5:13.32 | 166765 | 190271 15 | 42:16.72 | 3:35.60 | 190272 | 206456 16 | 45:52.57 | 3:24.48 | 206457 | 221804 17 | 49:17.30 | 1:20.03 | 221805 | 227807 18 | 50:37.33 | 3:08.34 | 227808 | 241941 19 | 53:45.67 | 3:10.06 | 241942 | 256197 20 | 56:55.73 | 4:41.31 | 256198 | 277303 21 | 61:37.29 | 4:01.22 | 277304 | 295400 22 | 65:38.51 | 2:38.02 | 295401 | 307252

Range status and errors

Selected range

Filename D:\John Williams - Hook\John Williams - Hook (Disc 1).wav

Peak level 100.0 % Extraction speed 8.3 X Range quality 100.0 % Test CRC EA0A6EBC Copy CRC EA0A6EBC Copy OK

No errors occurred

AccurateRip summary

Track 1 accurately ripped (confidence 5) [A6460A08] (AR v2)Track 2 accurately ripped (confidence 5) [D338D61E] (AR v2)Track 3 accurately ripped (confidence 5) [48A252A6] (AR v2)Track 4 accurately ripped (confidence 5) [4BE29B2C] (AR v2)Track 5 accurately ripped (confidence 5) [9A98ECE0] (AR v2)Track 6 accurately ripped (confidence 5) [EE2BCB62] (AR v2)Track 7 accurately ripped (confidence 5) [BCD18827] (AR v2)Track 8 accurately ripped (confidence 5) [A0007430] (AR v2)Track 9 accurately ripped (confidence 5) [292F4C2D] (AR v2)Track 10 accurately ripped (confidence 5) [5CEC35B9] (AR v2)Track 11 accurately ripped (confidence 5) [AB150F45] (AR v2)Track 12 accurately ripped (confidence 5) [5811918D] (AR v2)Track 13 accurately ripped (confidence 5) [DDFB21FB] (AR v2)Track 14 accurately ripped (confidence 5) [20273CB7] (AR v2)Track 15 accurately ripped (confidence 5) [17ED5FD9] (AR v2)Track 16 accurately ripped (confidence 5) [B5FB2705] (AR v2)Track 17 accurately ripped (confidence 5) [969C7DE5] (AR v2)Track 18 accurately ripped (confidence 5) [91EC9B32] (AR v2)Track 19 accurately ripped (confidence 5) [325D46E9] (AR v2)Track 20 accurately ripped (confidence 5) [2B98183E] (AR v2)Track 21 accurately ripped (confidence 5) [32D588B5] (AR v2)Track 22 accurately ripped (confidence 4) [24DA697E] (AR v2)

All tracks accurately ripped

End of status report

==== Log checksum FDDDE3B75C83BAE66CF85C434DD031A2BE4DA44E1935D3D4DDCB00080902EB36 ====
01. Remembering Childhood [11:04.35]
02. You Are The Pan [04:02.65]
03. When You're Alone [03:16.02]
performed by Amber Scott
04. Tink Grows Up [02:20.30]
05. The Ultimate War: To War [09:44.71]
06. The Ultimate War: The Death Of Rufio [02:26.47]
07. The Ultimate War: Sword Fight [05:33.16]
08. Farewell Neverland [11:15.27]
09. End Credits [06:08.24]
10. Prologue (Alternate) [01:35.15]
11. Banning Back Home (Film Version) [03:15.16]
12. Presenting The Hook (Film Version - Extended) [05:08.74]
13. Hook's Blues [02:18.35]
14. Wendy Tells Peter The Truth (Partly Unused) [02:23.45]
15. Exit Music (Unused) [01:41.33]
Exact Audio Copy V1.0 beta 3 from 29. August 2011

EAC extraction logfile from 20. March 2013, 21:36

John Williams / Hook (Disc 2)

Used drive : TSSTcorpCDDVDW SH-S202H Adapter: 0 ID: 0

Read mode : SecureUtilize accurate stream : YesDefeat audio cache : YesMake use of C2 pointers : No

Read offset correction : 6Overread into Lead-In and Lead-Out : NoFill up missing offset samples with silence : YesDelete leading and trailing silent blocks : NoNull samples used in CRC calculations : YesUsed interface : Native Win32 interface for Win NT & 2000

Used output format : Internal WAV RoutinesSample format : 44.100 Hz; 16 Bit; Stereo

TOC of the extracted CD

Track | Start | Length | Start sector | End sector --------------------------------------------------------- 1 | 0:00.00 | 11:04.35 | 0 | 49834 2 | 11:04.35 | 4:02.65 | 49835 | 68049 3 | 15:07.25 | 3:16.02 | 68050 | 82751 4 | 18:23.27 | 2:20.30 | 82752 | 93281 5 | 20:43.57 | 9:44.71 | 93282 | 137152 6 | 30:28.53 | 2:26.47 | 137153 | 148149 7 | 32:55.25 | 5:33.16 | 148150 | 173140 8 | 38:28.41 | 11:15.27 | 173141 | 223792 9 | 49:43.68 | 6:08.24 | 223793 | 251416 10 | 55:52.17 | 1:35.15 | 251417 | 258556 11 | 57:27.32 | 3:15.16 | 258557 | 273197 12 | 60:42.48 | 5:08.74 | 273198 | 296371 13 | 65:51.47 | 2:18.35 | 296372 | 306756 14 | 68:10.07 | 2:23.45 | 306757 | 317526 15 | 70:33.52 | 1:41.33 | 317527 | 325134

Range status and errors

Selected range

Filename D:\John Williams - Hook\John Williams - Hook (Disc 2).wav

Peak level 100.0 % Extraction speed 8.4 X Range quality 100.0 % Test CRC A473AC6E Copy CRC A473AC6E Copy OK

No errors occurred

AccurateRip summary

Track 1 accurately ripped (confidence 5) [A8F48170] (AR v2)Track 2 accurately ripped (confidence 5) [593A89AD] (AR v2)Track 3 accurately ripped (confidence 5) [6F58142D] (AR v2)Track 4 accurately ripped (confidence 5) [40972973] (AR v2)Track 5 accurately ripped (confidence 5) [D9DD2AB4] (AR v2)Track 6 accurately ripped (confidence 5) [97FD6D4E] (AR v2)Track 7 accurately ripped (confidence 5) [9B229C1A] (AR v2)Track 8 accurately ripped (confidence 5) [161C26AE] (AR v2)Track 9 accurately ripped (confidence 5) [AB5C4EAC] (AR v2)Track 10 accurately ripped (confidence 5) [68D1279B] (AR v2)Track 11 accurately ripped (confidence 5) [F7D575EB] (AR v2)Track 12 accurately ripped (confidence 5) [D5354BA3] (AR v2)Track 13 accurately ripped (confidence 5) [1C9E14BA] (AR v2)Track 14 accurately ripped (confidence 5) [F2C8AD30] (AR v2)Track 15 accurately ripped (confidence 5) [2B68E5B8] (AR v2)

All tracks accurately ripped

End of status report

==== Log checksum 3B69B0EFBC7D98D6BDEF2B4D6E57EBDD84299D4D3B4684EE321D32640BBD8036 ====
По немногочисленным просьбам - lossless-версия легендарного (и уже несколько лет как - редкого, ибо весь тираж распродан) альбома.
Стивен Спилберг и его переосмысление истории Питера Пэна. На сей раз сорванец вырос, стал уважаемым и жутко занятым человеком. Однако когда прошлое внезапно врывается в его жизнь, ставя под угрозу жизнь детей (как своих, так и мальчишек с Острова) - герою, хоть и с большим трудом, придется вспомнить то, что он давным-давно позабыл. Ему предстоит осознать - кто он такой, чтобы в финале картины вновь сразиться с ужасным Капитаном Крюком, не на жизнь, а на смерть.
Музыку написал "великий и ужасный" Джон Уильямс. Здесь и волшебство, и легкая грусть, и пираты, и безбашенные мальчишки... Короче - нас вновь ждут незабываемые мелодии, трогающие за душу, наверное, каждого, кто их услышит.



Трекер:  [ 23-Янв-2017 20:30 ]

  

Скачать .torrent

Размер .torrent файла 15 KB


Размер: 673 MB
Хэш (hash) релиза: 3e10aa229992b3eeaa0994622d4893c3ba9b4389

Еще никто не оставлял запись к записи скачать торрент Капитан Крюк Hook . Будь первым!

!Обратная связь