Скачать через торрент Викинги Vikings Фильм бесплатно в хорошем качестве torrent

Скачивайте на UnionPeer.org фильмы через торрент без регистрации. Новинки кино в хорошем качестве через торрент. На UnionPeer.org можно скачать через торрент фильмы 2014 и 2015 годов. Самые новые фильмы.

Скачать торрент Викинги Vikings бесплатно через .torrent фильм мультфильм сериал

Статистика раздачи
Размер:  2.11 GB   |    Зарегистрирован:  3 месяца 4 дня   |    .torrent скачан:  168 раз   |   
Раздают:  1  
   
 
Автор Сообщение

Galfimbul

avatar Galfimbul


<span class="post-font-serif1">Викинги / Vikings</span>
<span class="post-font-serif1">[i]Год выпуска: 2016
Страна: Ирландия, Канада
Жанр: Боевик, драма, военный, история
Продолжительность: ~00:50:00

Режиссёр: Киаран Доннелли, Йохан Ренк, Кен Джиротти
В ролях: Трэвис Фиммел, Клайв Стэнден, Гэбриел Бирн, Кэтрин Уинник, Джессалин Гилсиг, Джордж Благден, Густаф Скарсгард, Торбьорн Харр, Владимир Кулих, Донал Лог, Айван Кэй, Мод Хирст, Эрик Хиггинс, Герард Маккарти, Юко Ахола, Эми Де Брюн, Сэм Смит, Билл Гибсон, Кевин Мюррэй
Описание:История повествует о приключениях величайшего героя своего времени – Рагнара Лодброка. В сериале показан Рагнар со своим племенем братьев-викингов и его семьёй в процессе становления королём всех племён викингов. Рагнар – бесстрашный воин, и религиозный викинг, который объединяет все племена и распространяет среди них поклонение скандинавским богам. Согласно легенде, он – прямой потомок Одина, бога войны и воителей.



Качество: WEBRip 720p
Формат: MKV
Видео: MPEG-4 AVC, ~ 3400 Кбит/с, 1280x720, 25,000 fps
Аудио: HE-AAC, 2 ch, 64 Кбит/с, 44.1,0 КГц, CBR [Rus]
Субтитры: Есть рекламный хардсаб</span></span>

| <a href="tracker.php?f=1171,1669,189,2366&nm=Vikings" class="postLink">Ссылка на предыдущие и альтернативные раздачи</a> |
Общее
Полное имя : D:\Загрузки\Vikings.Season 4 SDI.Media\Vikings.4x19.On.the.Eve.avi
Формат : AVI
Формат/Информация : Audio Video Interleave
Размер файла : 600 Мбайт
Продолжительность : 42 м. 25 с.
Общий поток : 1977 Кбит/сек
Программа кодирования : VirtualDubMod 1.5.10.2 (build 2540/release)
Библиотека кодирования : VirtualDubMod build 2540/release

Видео
Идентификатор : 0
Формат : MPEG-4 Visual
Профиль формата : Advanced Simple@L5
Параметр BVOP формата : 2
Параметр QPel формата : Нет
Параметр GMC формата : Без точки перехода
Параметр матрицы формата : Default (MPEG)
Идентификатор кодека : XVID
Идентификатор кодека/Подсказка : XviD
Продолжительность : 42 м. 25 с.
Битрейт : 1775 Кбит/сек
Ширина : 720 пикселей
Высота : 400 пикселей
Соотношение сторон : 16:9
Частота кадров : 25,000 кадров/сек
Цветовое пространство : YUV
Субдискретизация насыщенности : 4:2:0
Битовая глубина : 8 бит
Тип развёртки : Прогрессивная
Метод сжатия : С потерями
Бит/(Пиксели*Кадры) : 0.247
Размер потока : 539 Мбайт (90%)
Библиотека кодирования : XviD 1.2.1 (UTC 2008-12-04)

Аудио
Идентификатор : 1
Формат : AC-3
Формат/Информация : Audio Coding 3
Расширение режима : CM (complete main)
Параметр Endianness формата : Big
Идентификатор кодека : 2000
Продолжительность : 42 м. 25 с.
Вид битрейта : Постоянный
Битрейт : 192 Кбит/сек
Каналы : 2 канала
Расположение каналов : Front: L R
Частота : 44,1 КГц
Частота кадров : 28,711 кадров/сек (1536 spf)
Битовая глубина : 16 бит
Метод сжатия : С потерями
Размер потока : 58,3 Мбайт (10%)
Выравнивание : Разделение по промежуткам
Продолжительность промежутка : 40 мс. (1,00 видеокадр)
Время предзагрузки промежутка : 500 мс.


Трекер:  [ 22-Янв-2017 21:30 ]

  

Скачать .torrent

Размер .torrent файла 11 KB


Размер: 2.11 GB
Хэш (hash) релиза: a6f622aa787629157e15d1513be7452c4c1b8cfe
Подписка на обновления:

Торренты, похожие на Викинги Vikings скачать торрент

Форум Название Автор Размер S L Добавлен
Зарубежные сериалы ·· Викинги / Vikings / Сезон: 4 / Серии: 19-20 из 20 (Йохан Ренк, Киаран Доннелли, Кен Джиротти) [2016, Ирландия, Канада, Боевик, драма, военный, история, TVRip] MVO (SDI Media) Galfimbul 12579512321.17 GB 0 0 1485099913

18:45

22-Янв-17

Еще никто не оставлял запись к записи скачать торрент Викинги Vikings . Будь первым!

!Обратная связь