Скачать через торрент Гравитационный пик Gravity Daze The Animation: Ouverture бесплатно Аниме Все серии на русском torrent

Если у вас наблюдаются проблемы со скриншотами, переходом по ссылками, скачиванием торрентов - проблемы в блокировщике рекламы AdBlock. #хорошегоДня!


Статистика раздачи
Размер:  269 MB   |    Зарегистрирован:  8 месяцев   |    .torrent скачан:  29 раз   |   
Раздают:  1  
   
Загрузка...
 
Автор Сообщение

Galfimbul

avatar Galfimbul


Гравитационный пик / Gravity Daze The Animation: Ouverture
Страна: Япония
Год выпуска: 2016
Жанр: Приключения, Фэнтези
Тип: Special
Продолжительность: 1 эп. ~ 20 мин.
Режиссер: Кобаяси Хироясу
Студия: Studio Khara
Перевод: Seiya Loveless & AleX_MytH
Озвучание: двухголосое (муж./жен.) от Soer, MezIdA [DeadLine Studio]
Работа со звуком: Soer [DeadLine Studio]
<span class="post-font-sans1">
Описание:
Дополнение к предстоящему выходу второй части игры "Gravity Rush (Daze)", созданный для связи сюжетов первой и второй игры.</span>
Качество:WEBRip | Формат: .mkv | Рип: PSN
Видео: x264 (8 bit), 1280x720, 1518 kbps, 23,976 fps
Звук (Rus(int)): AAC, 179 kbps, 48 KHz, 2ch | [2VO]
Звук (Japanese): AAC, 192 kbps, 44.1 KHz, 2ch | [Original]
Субтитры (Russian): ASS, встроенные | только надписи (включены по умолчанию)
Субтитры (Russian): ASS, встроенные | полный перевод
Хардсаб: отсутствует
General
Unique ID : 204525711736432278734632400571437332537 (0x99DE38219F3A038A940B02E63ABEB839)
Complete name : D:\[DLS] Gravity Rush The Animation - Overture [OVA] [Soer & MezIdA]\[DeadLine] Gravity Rush The Animation - Overture [OVA] [Soer & MezIdA] [720p WEBRip].mkv
Format : Matroska
Format version : Version 4 / Version 2
File size : 269 MiB
Duration : 19mn 50s
Overall bit rate : 1 892 Kbps
Encoded date : UTC 2017-01-19 17:55:24
Writing application : mkvmerge v7.6.0 ('Garden of Dreams') 64bit built on Feb 8 2015 13:04:34
Writing library : libebml v1.3.1 + libmatroska v1.4.2

Video
ID : 1
Format : AVC
Format/Info : Advanced Video Codec
Format profile : High@L3.1
Format settings, CABAC : Yes
Format settings, ReFrames : 1 frame
Codec ID : V_MPEG4/ISO/AVC
Duration : 19mn 50s
Bit rate : 1 518 Kbps
Width : 1 280 pixels
Height : 720 pixels
Display aspect ratio : 16:9
Frame rate mode : Variable
Frame rate : 23.871 fps
Color space : YUV
Chroma subsampling : 4:2:0
Bit depth : 8 bits
Scan type : Progressive
Bits/(Pixel*Frame) : 0.069
Stream size : 215 MiB (80%)
Default : Yes
Forced : No
Color range : Limited
Color primaries : BT.709
Transfer characteristics : BT.709
Matrix coefficients : BT.709

Audio #1
ID : 2
Format : AAC
Format/Info : Advanced Audio Codec
Format profile : LC
Codec ID : A_AAC
Duration : 19mn 50s
Bit rate : 179 Kbps
Channel(s) : 2 channels
Channel positions : Front: L R
Sampling rate : 48.0 KHz
Frame rate : 46.875 fps (1024 spf)
Compression mode : Lossy
Delay relative to video : 20ms
Stream size : 25.4 MiB (9%)
Title : [Soer & MezIdA] [Deadline Studio]
Language : Russian
Default : Yes
Forced : Yes

Audio #2
ID : 3
Format : AAC
Format/Info : Advanced Audio Codec
Format profile : LC
Codec ID : A_AAC
Duration : 19mn 50s
Bit rate : 192 Kbps
Channel(s) : 2 channels
Channel positions : Front: L R
Sampling rate : 44.1 KHz
Frame rate : 43.066 fps (1024 spf)
Compression mode : Lossy
Stream size : 27.2 MiB (10%)
Title : Original
Language : Japanese
Default : No
Forced : No

Text #1
ID : 4
Format : ASS
Codec ID : S_TEXT/ASS
Codec ID/Info : Advanced Sub Station Alpha
Duration : 9mn 52s
Bit rate : 1 bps
Count of elements : 2
Compression mode : Lossless
Stream size : 147 Bytes (0%)
Title : Надписи
Language : Russian
Default : Yes
Forced : Yes

Text #2
ID : 5
Format : ASS
Codec ID : S_TEXT/ASS
Codec ID/Info : Advanced Sub Station Alpha
Duration : 17mn 4s
Bit rate : 81 bps
Count of elements : 158
Compression mode : Lossless
Stream size : 10.3 KiB (0%)
Title : Полные субтитры
Language : Russian
Default : No
Forced : No


Трекер:  [ 22-Янв-2017 19:30 ]

  

Скачать .torrent

Размер .torrent файла 11 KB


Размер: 269 MB
Хэш (hash) релиза: 0d363629c43eb1a1728e02f3c77a54bb5dd0449b
Подписка на обновления:

Торренты, похожие на Гравитационный пик Gravity Daze The Animation: Ouverture скачать торрент

Форум Название Автор Размер S L Добавлен
Аниме | HD Rips ·· Гравитационный пик / Gravity Daze The Animation: Ouverture / Gravity Rush The Animation [Special] [1 из 1] [Без хардсаба] [JAP+SUB] [2016, приключения, BDRip] [1080p] Galfimbul 22144951092.06 GB 0 0 1504567858

02:30

5-Сен-17

Еще никто не оставлял запись к записи скачать торрент Гравитационный пик Gravity Daze The Animation: Ouverture . Будь первым!

!Обратная связь