Скачать через торрент Понедельник - день тяжёлый Getsuyoubi no Tawawa бесплатно Аниме Все серии на русском torrent

Если у вас наблюдаются проблемы со скриншотами, переходом по ссылками, скачиванием торрентов - проблемы в блокировщике рекламы AdBlock. #хорошегоДня!


Статистика раздачи
Размер:  16.96 GB   |    Зарегистрирован:  8 месяцев   |    .torrent скачан:  26 раз   |   
Раздают:  2  
   
Загрузка...
 
Автор Сообщение

Galfimbul

avatar Galfimbul


Понедельник - день тяжёлый / Getsuyoubi no Tawawa

Год выпуска: 2016
Страна: Япония
Жанр: комедия, повседневность
Тип: ONA
Продолжительность: 12 эп. по 5 мин., 2 спешала по 5 мин.
Озвучка: нет

Русские субтитры: есть (отдельным файлом, формат .ass)
Перевод:
<ol class="post-ul">
Lookera
</ol>
Хардсаб: Нет
Режиссер: Мураяма Косукэ
Студия: Pine Jam

Описание: Однажды обычный госслужащий встречает в поезде школьницу Ай. С тех пор они стали встречаться каждый понедельник, и мужчина исполняет роль телохранителя для девушки в переполненном поезде.

Качество: Blu-Ray Remux
Формат: MKV
Видео кодек: AVC
Аудио кодек: FLAC
Видео: 1920x1080 (16:9) 23,976 fps ~36,5 Mbps 8bit
Аудио:
Jap FLAC, 48000Hz, ~1443 Kbps, 2ch

Чаптеры присутствуют.
01. Понедельник - день тяжёлый
02. Незадачливая коллега хочет быть примерной!
03. Физические нагрузки
04. Ангел из тяжелого понедельника
05. Ай и решающий медосмотр
06. Не такая уж и неприступная коллега
07. Летние воспоминания о Ай
08. Абсолютно Эффективное обезболивающее
09. Ай в форме пекаря
10. Ай и марафон
11. Вспоминая возможности, которые я упустил в нашей с ней школьные годы
12. Ай на пути к взрослой жизни
Special:
01. Рассеянная, но очень милая и обаятельная коллега
Общее
Уникальный идентификатор : 197151815181167696637732870515157282757 (0x94520EF63C8B989BB2749DE25822AFC5)
Полное имя : Z:\Anime Release - working\Tawawa\[anti-raws]Getsuyoubi no Tawawa ep.01[BDRemux].mkv
Формат : Matroska
Версия формата : Version 4 / Version 2
Размер файла : 1,24 Гбайт
Продолжительность : 4 м. 34 с.
Режим общего битрейта : Переменный
Общий поток : 38,8 Мбит/сек
Дата кодирования : UTC 2017-01-14 21:52:40
Программа кодирования : mkvmerge v9.7.1 ('Pandemonium') 64bit
Библиотека кодирования : libebml v1.3.4 + libmatroska v1.4.5

Видео
Идентификатор : 2
Формат : AVC
Формат/Информация : Advanced Video Codec
Профиль формата : High@L4.1
Параметр CABAC формата : Да
Параметр ReFrames формата : 4 кадра
Идентификатор кодека : V_MPEG4/ISO/AVC
Продолжительность : 4 м. 34 с.
Вид битрейта : Переменный
Битрейт : 37,4 Мбит/сек
Максимальный битрейт : 39,0 Мбит/сек
Ширина : 1920 пикселей
Высота : 1080 пикселей
Соотношение сторон : 16:9
Режим частоты кадров : Постоянный
Частота кадров : 23,976 (24000/1001) кадра/сек
Цветовое пространство : YUV
Субдискретизация насыщенности : 4:2:0
Битовая глубина : 8 бит
Тип развёртки : Прогрессивная
Бит/(Пиксели*Кадры) : 0.752
Размер потока : 1,19 Гбайт (96%)
Default : Нет
Forced : Нет

Аудио
Идентификатор : 1
Формат : FLAC
Формат/Информация : Free Lossless Audio Codec
Идентификатор кодека : A_FLAC
Продолжительность : 4 м. 34 с.
Вид битрейта : Переменный
Битрейт : 1441 Кбит/сек
Каналы : 2 канала
Расположение каналов : Front: L R
Частота : 48,0 КГц
Частота кадров : 11,719 кадров/сек (4096 spf)
Битовая глубина : 24 бит
Размер потока : 47,1 Мбайт (4%)
Библиотека кодирования : libFLAC 1.2.1 (UTC 2007-09-17)
Язык : Japanese
Default : Да
Forced : Нет

Меню
00:00:00.000 : en:00:00:00.000
00:03:30.710 : en:00:03:30.710
<a href="viewtopic.php?t=5298716" class="postLink">...5298716</a>
--BDRip

Эта раздача - BDRemux


Трекер:  [ 16-Янв-2017 00:00 ]

  

Скачать .torrent

Размер .torrent файла 24 KB


Размер: 16.96 GB
Хэш (hash) релиза: 44057b50fa49175ddf941ee42e4abb3e93ea851b
Подписка на обновления:

Торренты, похожие на Понедельник - день тяжёлый Getsuyoubi no Tawawa скачать торрент

Форум Название Автор Размер S L Добавлен
Аниме | HD Rips ·· Понедельник - день тяжёлый / Getsuyoubi no Tawawa / Tawawa on Monday [ONA+Special] [12+2 из 12+2] [Без хардсаба] [JAP, SUB] [2016, Комедия, Повседневность, BDRip] [1080p] Galfimbul 62871922575.86 GB 0 0 1488149788

01:56

27-Фев-17

Аниме | HD Rips ·· Понедельник - день тяжёлый / Getsuyoubi no Tawawa / Tawawa on Monday [ONA+Special] [12+1 из 12+2] [Без хардсаба] [JAP, SUB] [2016, Комедия, Повседневность, BDRip] [720p] Galfimbul 973175752928 MB 0 0 1483845731

06:22

8-Янв-17

Аниме | HD Rips ·· Понедельник - день тяжёлый / Getsuyoubi no Tawawa / Tawawa on Monday [ONA] [01-11 из 14] [Без хардсаба] [JAP, SUB] [2016, Комедия, Повседневность, BDRip] [720p] Galfimbul 829292054791 MB 0 0 1483756195

05:29

7-Янв-17

Аниме | HD Rips ·· Понедельник - день тяжёлый / Getsuyoubi no Tawawa / Tawawa on Monday [ONA] [01-10 из 14] [Без хардсаба] [JAP, SUB] [2016, Комедия, Повседневность, BDRip] [720p] Galfimbul 754574916720 MB 0 0 1483372858

19:00

2-Янв-17

Аниме | HD Rips ·· Понедельник - день тяжёлый / Getsuyoubi no Tawawa / Tawawa on Monday [ONA] [01-10 из 12] [Без хардсаба] [JAP, SUB] [2016, Комедия, Повседневность, WEBRip] [720p] Galfimbul 883500216843 MB 0 0 1481775974

07:26

15-Дек-16

Аниме | HD Rips ·· Понедельник - день тяжёлый / Getsuyoubi no Tawawa / Tawawa on Monday [TV] [01-09 из 12] [Без хардсаба] [JAP, SUB] [2016, Комедия, Повседневность, WEBRip] [720p] Galfimbul 781579494745 MB 0 0 1481142879

23:34

7-Дек-16

Аниме | HD Rips ·· Понедельник - день тяжёлый / Getsuyoubi no Tawawa / Tawawa on Monday [TV] [01-08 из 12] [Без хардсаба] [JAP, SUB] [2016, Комедия, Повседневность, WEBRip] [720p] Galfimbul 700854481668 MB 0 0 1480737783

07:03

3-Дек-16

Аниме | HD Rips ·· Понедельник - день тяжёлый / Getsuyoubi no Tawawa / Tawawa on Monday [TV] [01-07 из 12] [Без хардсаба] [JAP, SUB] [2016, Комедия, Повседневность, WEBRip] [720p] Galfimbul 612551130584 MB 0 0 1480130946

06:29

26-Ноя-16

Аниме | HD Rips ·· Понедельник - день тяжёлый / Getsuyoubi no Tawawa / Tawawa on Monday [TV] [01-06 из 12] [Без хардсаба] [JAP, SUB] [2016, Комедия, Повседневность, WEBRip] [720p] Galfimbul 521821389498 MB 0 0 1479615765

07:22

20-Ноя-16

Аниме | HD Rips ·· Понедельник - день тяжёлый / Getsuyoubi no Tawawa / Tawawa on Monday [TV] [01-05 из 12] [Без хардсаба] [JAP, SUB] [2016, Комедия, Повседневность, WEBRip] [720p] Galfimbul 432004734412 MB 0 0 1478638905

00:01

9-Ноя-16

Аниме | HD Rips ·· Понедельник - день тяжёлый / Getsuyoubi no Tawawa / Tawawa on Monday [TV] [01-04 из 12] [Без хардсаба] [JAP, SUB] [2016, Комедия, Повседневность, WEBRip] [720p] Galfimbul 329886870315 MB 0 0 1478051993

04:59

2-Ноя-16

Аниме | HD Rips ·· Понедельник - день тяжёлый / Getsuyoubi no Tawawa / Tawawa on Monday [TV] [01-03 из 12] [Без хардсаба] [JAP, SUB] [2016, Комедия, Повседневность, WEBRip] [720p] Galfimbul 237367120226 MB 0 0 1477717320

08:02

29-Окт-16

Аниме | HD Rips ·· Понедельник - день тяжёлый / Getsuyoubi no Tawawa / Tawawa on Monday [TV] [01-02 из 12] [Без хардсаба] [JAP, SUB] [2016, Комедия, Повседневность, WEBRip] [720p] Galfimbul 146499786140 MB 0 0 1477024225

07:30

21-Окт-16

Аниме | HD Rips ·· Понедельник - день тяжёлый / Getsuyoubi no Tawawa / Tawawa on Monday [TV] [01 из 12] [Без хардсаба] [JAP, SUB] [2016, Комедия, Повседневность, WEBRip] [720p] Galfimbul 7396095071 MB 0 0 1476812168

20:36

18-Окт-16

Еще никто не оставлял запись к записи скачать торрент Понедельник - день тяжёлый Getsuyoubi no Tawawa . Будь первым!

!Обратная связь