Скачать через торрент Бруклин 9-9 Brooklyn Nine-Nine Фильм бесплатно в хорошем качестве torrent

Скачивайте на UnionPeer.org фильмы через торрент без регистрации. Новинки кино в хорошем качестве через торрент. На UnionPeer.org можно скачать через торрент фильмы 2014 и 2015 годов. Самые новые фильмы.

Скачать торрент Бруклин 9-9 Brooklyn Nine-Nine бесплатно через .torrent фильм мультфильм сериал

Статистика раздачи
Размер:  8.7 GB   |    Зарегистрирован:  1 месяц 8 дней   |    .torrent скачан:  22 раза   |   
Раздают:  1  
   
 
Автор Сообщение

Galfimbul

avatar Galfimbul


Бруклин 9-9 / Brooklyn Nine-Nine
Год выпуска: 2016
Страна: США
Жанр: Комедия, Криминал
Продолжительность: ~00:23:00

Перевод: Профессиональный (многоголосый закадровый) NewStudio | Александра Цернант, Юрий Башенкер

Режиссёр: Фил Лорд
В ролях: Энди Сэмберг, Андре Брогер, Терри Крюс, Мелисса Фумеро, Джо Ло Трульо, Стефани Беатриз

Описание: История о том, что происходит, когда у детектива, не воспринимающего ничего серьезно, появляется новый руководитель, который хочет, чтобы он рос и с уважением относился к своей должности.

Рейтинг:


<a href="tracker.php?f=2366,189,842&nm=Brooklyn+Nine+Nine" class="postLink">Все раздачи сериала</a>

Качество: WEB-DL 720p
Контейнер: MKV
Видео: AVC, 1280x720 (16:9), 23.976 fps, 4 034 kb/s
Аудио: russian / русский, AC3, 48 kHz, 6 ch, 384 kbps
В звуковой дорожке вырезана реклама.
За работу над звуковой дорожкой благодарим: <a href="profile.php?mode=viewprofile&u=18725830" class="postLink">Montgomery334</a>.
Аудио 2: english / английский, AC3, 48 kHz, 6 ch, 384 kbps
Субтитры: Русский язык (Forced). Присутствуют не во всех сериях.
1.Coral Palms, Part 1
2.Coral Palms, Part 2
3.Coral Palms, Part 3
4.The Night Shift
5.Halloween IV
6.Monster in the Closet
7.Mr. Santiago
8.Skyfire Cycle
9.The Overmining
10.Captain Latvia
11.Fugitive, Part 1
12.Fugitive, Part 2
1.Корал Палмс, Часть первая
2.Корал Палмс, Часть вторая
3.Корал Палмс, Часть третья
4.Ночная смена
5.Хэллоуин IV
6.Монстр в шкафу
7.Мистер Сантьяго
8.Праздничный цикл
9.The Overmining(не переводится.)
10.Капитан Латвия
11.Беглец, Часть 1
12.Беглец, Часть 2
Format : Matroska
Format version : Version 4 / Version 2
File size : 744 MiB
Duration : 21 min 36 s
Overall bit rate : 4 814 kb/s
Movie name : Brooklyn.Nine-Nine.S04E01.720p.WEB-DL.DD5.1.H264-RARBG
Encoded date : UTC 2016-10-25 21:23:27
Writing application : mkvmerge v9.5.0 ('Quiet Fire') 64bit
Writing library : libebml v1.3.4 + libmatroska v1.4.5

Video
ID : 1
Format : AVC
Format/Info : Advanced Video Codec
Format profile : High@L3.1
Format settings, CABAC : No
Format settings, ReFrames : 2 frames
Codec ID : V_MPEG4/ISO/AVC
Duration : 21 min 36 s
Bit rate : 4 044 kb/s
Width : 1 280 pixels
Height : 720 pixels
Display aspect ratio : 16:9
Frame rate mode : Constant
Frame rate : 23.976 (24000/1001) FPS
Color space : YUV
Chroma subsampling : 4:2:0
Bit depth : 8 bits
Scan type : Progressive
Bits/(Pixel*Frame) : 0.183
Stream size : 625 MiB (84%)
Title : Brooklyn.Nine-Nine.S04E01.720p.WEB-DL.DD5.1.H264-RARBG
Language : English
Default : Yes
Forced : No
Color range : Limited
Color primaries : BT.709
Transfer characteristics : BT.709
Matrix coefficients : BT.709

Audio #1
ID : 2
Format : AC-3
Format/Info : Audio Coding 3
Mode extension : CM (complete main)
Format settings, Endianness : Big
Codec ID : A_AC3
Duration : 21 min 36 s
Bit rate mode : Constant
Bit rate : 384 kb/s
Channel(s) : 6 channels
Channel positions : Front: L C R, Side: L R, LFE
Sampling rate : 48.0 kHz
Frame rate : 31.250 FPS (1536 spf)
Compression mode : Lossy
Stream size : 59.4 MiB (8%)
Language : English
Default : No
Forced : No

Audio #2
ID : 3
Format : AC-3
Format/Info : Audio Coding 3
Mode extension : CM (complete main)
Format settings, Endianness : Big
Codec ID : A_AC3
Duration : 21 min 36 s
Bit rate mode : Constant
Bit rate : 384 kb/s
Channel(s) : 6 channels
Channel positions : Front: L C R, Side: L R, LFE
Sampling rate : 48.0 kHz
Frame rate : 31.250 FPS (1536 spf)
Compression mode : Lossy
Stream size : 59.4 MiB (8%)
Title : NewStudio.TV(ed)
Language : Russian
Default : Yes
Forced : No
Раздача обновлена!(12 Января 2017). Добавлена 11 и 12 серия!
Внимание! Раздача ведётся путём добавления новых серий, при каждом добавлении создаётся новый торрент. Чтобы начать докачку новой серии, пользователям необходимо сделать следующее:
Остановить скачивание.
Удалить старый торрент у себя из клиента (старые серии удалять не надо).
Скачать новый торрент и запустить его у себя в клиенте вместо старого, при этом указать клиенту путь в старую папку куда и должно происходить скачивание новых серий.
Ваш клиент при этом должен произвести хеширование (проверку) старой папки (если не производит сам - помогите ему сделать это), и будет докачивать только те серии которых у вас ещё нет. Старые серии при этом не удаляются, а продолжают раздаваться!
Eсли вы уже удалили старые серии, то предотвратить повторную закачку старых серий можно, отжав галочку в соответствующих местах при запуске нового торрента. По возможности, желательно не удалять старые серии как можно дольше, чтобы релизёр не только продолжал раздавать старые серии, а смог сконцентрироваться на новых.
Текст взят у пользователя Fed0rR
После выхода серии нужно некоторое время на вырез рекламы. Прошу принять это во внимание.

Трекер:  [ 12-Янв-2017 11:30 ]

  

Скачать .torrent

Размер .torrent файла 23 KB


Размер: 8.7 GB
Хэш (hash) релиза: afdb5e1cc33a7c92581d29cbc9c2498d1db644e2
Подписка на обновления:

Торренты, похожие на Бруклин 9-9 Brooklyn Nine-Nine скачать торрент

Форум Название Автор Размер S L Добавлен
Зарубежные сериалы ·· Бруклин 9-9 / Brooklyn Nine-Nine / Сезон: 4 / Серии: 1-12 из 23 (Фил Лорд) [2016, США, Комедия, Криминал, WEB-DL 1080p] MVO (NewStudio) + Original Galfimbul 1154166117610.75 GB 0 0 1484212707

12:18

12-Янв-17

Еще никто не оставлял запись к записи скачать торрент Бруклин 9-9 Brooklyn Nine-Nine . Будь первым!

!Обратная связь