Скачать через торрент Бруклин 9-9 Brooklyn Nine-Nine Фильм бесплатно в хорошем качестве torrent

Скачивайте на UnionPeer.org фильмы через торрент без регистрации. Новинки кино в хорошем качестве через торрент. На UnionPeer.org можно скачать через торрент фильмы 2014 и 2015 годов. Самые новые фильмы.

Скачать торрент Бруклин 9-9 Brooklyn Nine-Nine бесплатно через .torrent фильм мультфильм сериал

Статистика раздачи
Размер:  10.75 GB   |    Зарегистрирован:  1 месяц 8 дней   |    .torrent скачан:  15 раз   |   
Раздают:  1  
   
 
Автор Сообщение

Galfimbul

avatar Galfimbul


Бруклин 9-9 / Brooklyn Nine-Nine
Год выпуска: 2016
Страна: США
Жанр: Комедия, Криминал
Продолжительность: ~00:23:00

Перевод: Профессиональный (многоголосый закадровый) NewStudio | Александра Цернант, Юрий Башенкер

Режиссёр: Фил Лорд
В ролях: Энди Сэмберг, Андре Брогер, Терри Крюс, Мелисса Фумеро, Джо Ло Трульо, Стефани Беатриз

Описание: История о том, что происходит, когда у детектива, не воспринимающего ничего серьезно, появляется новый руководитель, который хочет, чтобы он рос и с уважением относился к своей должности.

Рейтинг:


<a href="tracker.php?f=2366,189,842&nm=Brooklyn+Nine+Nine" class="postLink">Все раздачи сериала</a>



Качество: WEB-DL 1080p
Контейнер: MKV
Видео: AVC, 1920x1080 (16:9), 23.976 fps, 5 109 kb/s
Аудио: russian / русский, AC3, 48 kHz, 6 ch, 384 kbps
В звуковой дорожке вырезана реклама.
За работу над звуковой дорожкой благодарим: <a href="profile.php?mode=viewprofile&u=18725830" class="postLink">Montgomery334</a>.
Аудио 2: english / английский, AC3, 48 kHz, 6 ch, 384 kbps
Субтитры: Русский язык (Forced). Присутствуют не во всех сериях.
1.Coral Palms, Part 1
2.Coral Palms, Part 2
3.Coral Palms, Part 3
4.The Night Shift
5.Halloween IV
6.Monster in the Closet
7.Mr. Santiago
8.Skyfire Cycle
9.The Overmining
10.Captain Latvia
11.Fugitive, Part 1
12.Fugitive, Part 2
1.Корал Палмс, Часть первая
2.Корал Палмс, Часть вторая
3.Корал Палмс, Часть третья
4.Ночная смена
5.Хэллоуин IV
6.Монстр в шкафу
7.Мистер Сантьяго
8.Праздничный цикл
9.The Overmining(не переводится.)
10.Капитан Латвия
11.Беглец, Часть 1
12.Беглец, Часть 2
Формат : Matroska
Версия формата : Version 4 / Version 2
Размер файла : 919 Мбайт
Продолжительность : 21 м. 36 с.
Общий поток : 5944 Кбит/сек
Дата кодирования : UTC 2016-09-24 18:09:06
Программа кодирования : mkvmerge v8.2.0 ('World of Adventure') 32bit
Библиотека кодирования : libebml v1.3.1 + libmatroska v1.4.2

Видео
Идентификатор : 1
Формат : AVC
Формат/Информация : Advanced Video Codec
Профиль формата : High@L4
Параметр CABAC формата : Да
Параметр ReFrames формата : 4 кадра
Идентификатор кодека : V_MPEG4/ISO/AVC
Продолжительность : 21 м. 36 с.
Битрейт : 5174 Кбит/сек
Ширина : 1920 пикселей
Высота : 1080 пикселей
Соотношение сторон : 16:9
Режим частоты кадров : Постоянный
Частота кадров : 23,976 (24000/1001) кадра/сек
Цветовое пространство : YUV
Субдискретизация насыщенности : 4:2:0
Битовая глубина : 8 бит
Тип развёртки : Прогрессивная
Бит/(Пиксели*Кадры) : 0.104
Размер потока : 800 Мбайт (87%)
Заголовок : Brooklyn.Nine-Nine.S04E01.1080p.WEB-DL.DD5.1.H264-RARBG
Язык : English
Default : Да
Forced : Нет
Цветовой диапазон : Limited
Основные цвета : BT.709
Характеристики трансфера : BT.709
Коэффициенты матрицы : BT.709

Аудио #1
Идентификатор : 2
Формат : AC-3
Формат/Информация : Audio Coding 3
Расширение режима : CM (complete main)
Параметр Endianness формата : Big
Идентификатор кодека : A_AC3
Продолжительность : 21 м. 36 с.
Вид битрейта : Постоянный
Битрейт : 384 Кбит/сек
Каналы : 6 каналов
Расположение каналов : Front: L C R, Side: L R, LFE
Частота : 48,0 КГц
Частота кадров : 31,250 кадров/сек (1536 spf)
Метод сжатия : С потерями
Размер потока : 59,4 Мбайт (6%)
Заголовок : NewStudio.TV
Язык : Russian
Default : Да
Forced : Нет

Аудио #2
Идентификатор : 3
Формат : AC-3
Формат/Информация : Audio Coding 3
Расширение режима : CM (complete main)
Параметр Endianness формата : Big
Идентификатор кодека : A_AC3
Продолжительность : 21 м. 36 с.
Вид битрейта : Постоянный
Битрейт : 384 Кбит/сек
Каналы : 6 каналов
Расположение каналов : Front: L C R, Side: L R, LFE
Частота : 48,0 КГц
Частота кадров : 31,250 кадров/сек (1536 spf)
Метод сжатия : С потерями
Размер потока : 59,4 Мбайт (6%)
Язык : English
Default : Нет
Forced : Нет
Раздача обновлена!(12 Января 2017). Добавлена 11 и 12 серия!
Внимание! Раздача ведётся путём добавления новых серий, при каждом добавлении создаётся новый торрент. Чтобы начать докачку новой серии, пользователям необходимо сделать следующее:
Остановить скачивание.
Удалить старый торрент у себя из клиента (старые серии удалять не надо).
Скачать новый торрент и запустить его у себя в клиенте вместо старого, при этом указать клиенту путь в старую папку куда и должно происходить скачивание новых серий.
Ваш клиент при этом должен произвести хеширование (проверку) старой папки (если не производит сам - помогите ему сделать это), и будет докачивать только те серии которых у вас ещё нет. Старые серии при этом не удаляются, а продолжают раздаваться!
Eсли вы уже удалили старые серии, то предотвратить повторную закачку старых серий можно, отжав галочку в соответствующих местах при запуске нового торрента. По возможности, желательно не удалять старые серии как можно дольше, чтобы релизёр не только продолжал раздавать старые серии, а смог сконцентрироваться на новых.
Текст взят у пользователя Fed0rR
После выхода серии нужно некоторое время на вырез рекламы. Прошу принять это во внимание.

Трекер:  [ 12-Янв-2017 11:30 ]

  

Скачать .torrent

Размер .torrent файла 28 KB


Размер: 10.75 GB
Хэш (hash) релиза: 719097e3d33955fd49bc64d7173505f58f5615b9
Подписка на обновления:

Торренты, похожие на Бруклин 9-9 Brooklyn Nine-Nine скачать торрент

Форум Название Автор Размер S L Добавлен
Зарубежные сериалы ·· Бруклин 9-9 / Brooklyn Nine-Nine / Сезон: 4 / Серии: 1-12 из 23 (Фил Лорд) [2016, США, Комедия, Криминал, WEB-DL 720p] MVO (NewStudio) + Original Galfimbul 93387353038.7 GB 0 0 1484212711

12:18

12-Янв-17

Еще никто не оставлял запись к записи скачать торрент Бруклин 9-9 Brooklyn Nine-Nine . Будь первым!

!Обратная связь