Скачать через торрент Эрмитаж Фильм бесплатно в хорошем качестве torrent

Скачивайте на UnionPeer.org фильмы через торрент без регистрации. Новинки кино в хорошем качестве через торрент. На UnionPeer.org можно скачать через торрент фильмы 2014 и 2015 годов. Самые новые фильмы.

Скачать торрент Эрмитаж бесплатно через .torrent фильм мультфильм сериал

Статистика раздачи
Размер:  21.1 GB   |    Зарегистрирован:  4 месяца 11 дней   |    .torrent скачан:  17 раз   |   
Раздают:  1  
   
 
Автор Сообщение

Galfimbul

avatar Galfimbul


Эрмитаж

Дата/Год выпуска: 2015-2017
Страна: Россия
Жанр: Документальный цикл, познавательный
Продолжительность: 00:25:41
Перевод: Не требуется
Русские субтитры: нет
Рип: , dean10
Оригинальная аудиодорожка: русский
Режиссер: Михаил Трофимов

Телеканал: Культура
Описание:

Продолжение рассказов Михаила Пиотровского о сокровищах Эрмитажа и его истории

12.01.2017 _ добавил: Платье Марселя Пруста,
перезаливаем
Больдини, звезда Belle Еpoque. Парижский шик, или Красота по-итальянски
Бродили с драконами под руку луны
Византия на берегах Невы
Зеркальные отражения Эрмитажа
И чистые сердца в нем пили благодать. Искусство буддизма в Петербурге
Изобретение античности
Испанцы. большая ротация
Красота в глазах смотрящего
Культура как хранитель религиозных ценностей
Любовь как чудо
Малый тронный. Возвращение
Мушкетеры: 400 лет спустя
Павел Первый и Мальтийский орден
Пальмира и Античное наследие Эрмитажа
Пальмира. Спецвыпуск (03.04.2016)
Персы
Платье Марселя Пруста
Понедельник
Райские кущи Эрмитажа
Рубенс в саду земных наслаждений
Счастливое платье императрицы
Театральные тайны
Эрмитаж-археолог
Сэмпл: http://multi-up.com/1070895

качество: DVB
формат: MPG
Видео: MPEG 2, 704x576, (4:3), 25 fps, 5 083 kbps
Аудио: MP2, 48 kHz, 2 ch, 256 kbps
GeneralComplete name : C:\Понедельник.mpgFormat : MPEG-PSFile size : 1 001 MiBDuration : 25mn 41sOverall bit rate mode : VariableOverall bit rate : 5 448 Kbps

VideoID : 224 (0xE0)Format : MPEG VideoFormat version : Version 2Format profile : Main@MainFormat settings, BVOP : YesFormat settings, Matrix : CustomFormat settings, GOP : M=3, N=15Format settings, picture structure : FrameDuration : 25mn 41sBit rate mode : VariableBit rate : 5 083 KbpsMaximum bit rate : 15.0 MbpsWidth : 720 pixelsHeight : 576 pixelsDisplay aspect ratio : 4:3Frame rate : 25.000 fpsStandard : PALColor space : YUVChroma subsampling : 4:2:0Bit depth : 8 bitsScan type : InterlacedScan order : Top Field FirstCompression mode : LossyBits/(Pixel*Frame) : 0.490Time code of first frame : 00:00:00:00Time code source : Group of pictures headerGOP, Open/Closed : ClosedStream size : 934 MiB (93%)

AudioID : 192 (0xC0)Format : MPEG AudioFormat version : Version 1Format profile : Layer 2Duration : 25mn 41sBit rate mode : ConstantBit rate : 256 KbpsChannel(s) : 2 channelsSampling rate : 48.0 KHzCompression mode : LossyDelay relative to video : 1msStream size : 47.1 MiB (5%)


Трекер:  [ 12-Янв-2017 10:30 ]

  

Скачать .torrent

Размер .torrent файла 108 KB


Размер: 21.1 GB
Хэш (hash) релиза: 34caba1f21a527f467c7b5e1bbf2fc72f20c4975
Подписка на обновления:

Торренты, похожие на Эрмитаж скачать торрент

Форум Название Автор Размер S L Добавлен
Документальные фильмы и телепередачи ·· Мой Эрмитаж (58 выпусков) << Эрмитаж 250. Венеция >> (Лев Цуцульковский) [1980-2013 г., Документальный цикл, познавательный, SATRip / DVB] Galfimbul 3074902708228.64 GB 0 0 1382971343

17:42

28-Окт-13

Документальные фильмы и телепередачи ·· Мой Эрмитаж (57 выпусков) << По выставкам, которые за последние 14 лет прошли в Эрмитаже >> (Лев Цуцульковский) [1980-2013 г., Документальный цикл, познавательный, SATRip / DVB] Galfimbul 2348593719821.87 GB 0 0 1374504739

17:52

22-Июл-13

Документальные фильмы и телепередачи ·· Эрмитаж (28 выпускoв) (Михаил Трофимов) [2015-2017, Документальный цикл, познавательный, DVB, RU] Galfimbul 2586319257624.09 GB 0 0 1493763289

01:14

3-Май-17

Документальные фильмы и телепередачи ·· Эрмитаж (27 выпускoв) (Михаил Трофимов) [2015-2017, Документальный цикл, познавательный, DVB, RU] Galfimbul 2506764288023.35 GB 0 0 1492516566

14:56

18-Апр-17

Документальные фильмы и телепередачи ·· Эрмитаж (26 выпускoв) (Михаил Трофимов) [2015-2017, Документальный цикл, познавательный, DVB, RU] Galfimbul 2449468006422.81 GB 0 0 1488922809

00:40

8-Мар-17

Документальные фильмы и телепередачи ·· Эрмитаж (25 выпускoв) (Михаил Трофимов) [2015-2017, Документальный цикл, познавательный, DVB, RU] Galfimbul 2384296140822.21 GB 0 0 1487767775

15:49

22-Фев-17

Документальные фильмы и телепередачи ·· RT: Хранители Эрмитажа [2013, Документальный, HDTV 1080i] Galfimbul 13805666271.29 GB 0 0 1485803677

22:14

30-Янв-17

Документальные фильмы и телепередачи ·· Эрмитаж (24 выпускa) (Михаил Трофимов) [2015-2017, Документальный цикл, познавательный, DVB, RU] Galfimbul 2323517235221.64 GB 0 0 1485538775

20:39

27-Янв-17

Документальные фильмы и телепередачи ·· Эрмитаж (21 выпуск) (Михаил Трофимов) [2015-2016, Документальный цикл, познавательный, DVB, RU] Galfimbul 2045782835219.05 GB 0 0 1481494162

01:09

12-Дек-16

Документальные фильмы и телепередачи ·· Эрмитаж (21 выпуск) (Михаил Трофимов) [2015-2016, Документальный цикл, познавательный, DVB, RU] Galfimbul 2004617420818.67 GB 0 0 1481492119

00:35

12-Дек-16

Документальные фильмы и телепередачи ·· Эрмитаж (20 выпускoв) (Михаил Трофимов) [2015-2016, Документальный цикл, познавательный, DVB, RU] Galfimbul 1894555648017.64 GB 0 0 1480507835

15:10

30-Ноя-16

Документальные фильмы и телепередачи ·· Эрмитаж (18 выпускoв) (Михаил Трофимов) [2015-2016, Документальный цикл, познавательный, DVB, RU] Galfimbul 1698309529615.82 GB 0 0 1477378076

09:47

25-Окт-16

Документальные фильмы и телепередачи ·· Эрмитаж (17 выпускoв) (Михаил Трофимов) [2015-2016, Документальный цикл, познавательный, DVB, RU] Galfimbul 1588331724814.79 GB 0 0 1476695298

12:08

17-Окт-16

Документальные фильмы и телепередачи ·· Эрмитаж (16 выпускoв) (Михаил Трофимов) [2015-2016, Документальный цикл, познавательный, DVB, RU] Galfimbul 1478129459213.77 GB 0 0 1469470821

21:20

25-Июл-16

Документальные фильмы и телепередачи ·· Эрмитаж. Экскурсия по музею (Игорь Лебедев) [2006, культура и искусство, DVDRip] Galfimbul 14662795901.37 GB 0 0 1468152225

15:03

10-Июл-16

Документальные фильмы и телепередачи ·· Эрмитаж (15 выпускoв) (Михаил Трофимов) [2015-2016, Документальный цикл, познавательный, DVB, RU] Galfimbul 1425823948813.28 GB 0 0 1465909108

15:58

14-Июн-16

Документальные фильмы и телепередачи ·· Эрмитаж (14 выпускoв) (Михаил Трофимов) [2015-2016, Документальный цикл, познавательный, DVB, RU] Galfimbul 1315837132812.25 GB 0 0 1465451531

08:52

9-Июн-16

Документальные фильмы и телепередачи ·· Эрмитаж (13 выпускoв) (Михаил Трофимов) [2015-2016, Документальный цикл, познавательный, DVB, RU] Galfimbul 1174226944010.94 GB 0 0 1464727154

23:39

31-Май-16

Документальные фильмы и телепередачи ·· Эрмитаж (12 выпускoв) (Михаил Трофимов) [2015-2016, Документальный цикл, познавательный, DVB, RU] Galfimbul 1122826240010.46 GB 0 0 1464199830

21:10

25-Май-16

Еще никто не оставлял запись к записи скачать торрент Эрмитаж . Будь первым!

!Обратная связь