Скачать через торрент Стрелок Shooter Фильм бесплатно в хорошем качестве torrent

Скачивайте на UnionPeer.org фильмы через торрент без регистрации. Новинки кино в хорошем качестве через торрент. На UnionPeer.org можно скачать через торрент фильмы 2014 и 2015 годов. Самые новые фильмы.

Скачать торрент Стрелок Shooter бесплатно через .torrent фильм мультфильм сериал

Если у вас наблюдаются проблемы со скриншотами, переходом по ссылками, скачиванием торрентов - проблемы в блокировщике рекламы AdBlock. #хорошегоДня!


Статистика раздачи
Размер:  7.15 GB   |    Зарегистрирован:  8 месяцев   |    .torrent скачан:  62 раза   |   
Раздают:  1  
   
Загрузка...
 
Автор Сообщение

Galfimbul

avatar Galfimbul




Стрелок / Shooter

Год выпуска: 2016
Страна: США
Жанр: боевик, драма
Продолжительность: ~ 00:41:37
Перевод: Профессиональный (многоголосый закадровый) OmskBird
Режиссёр: Саймон Селлан Джоунс
В ролях: Райан Филипп, Синтия Аддай-Робинсон, Омар Эппс, Эдди МакКлинток, Темби Лок, Анжелика Кенни, Лекси Колкер, Шон Майкл, Шантель Ван Сантен, Донзали Абернати
Описание: Главным персонажем является бывший морской пехотинец и снайпер Боб Суэггер. Не по своей воле он оказывается вовлеченным в тайный заговор, главная цель которого заключается в ликвидации американского президента. Догадавшись о том, что его планируют подставить, Боб уходит в бега и готовится к тому, чтобы найти настоящего киллера.
Релиз-группа:
Релиз подготовил: Grandfather61
Роли озвучивали: Алексей Гнеушев, Павел Ярощик, Андрей Астров, Маргарита Корш
Перевод: Дарья Жмура
Звукорежиссер: Павел Квентов
Постер: Ксения Просветова
Монтаж и сведение звука: Юрий Гамов

<a href="tracker.php?f=189,2366,842,235&nm=Shooter" class="postLink"><span class="post-font-serif1">Ссылка на предыдущие и альтернативные раздачи</span></a>
Качество: WEBRip
Контейнер: AVI
Видео: 720x400 (1.80:1), 23.976 fps, XviD MPEG-4 ~1900 kbps avg, 0.28 bit/pixel
Аудио # rus: AC3, 48 kHz, 3/2 (L,C,R,l,r) + LFE ch, ~384 kbps - OMSKBIRD
Аудио # eng: AC3, 48 kHz, 3/2 (L,C,R,l,r) + LFE ch, ~384 kbps
Субтитры: Отсутсттвуют
Реклама:
присутствуют аудио вставки рекламы (в начале и в конце по 10 сек.)
01. Point of Impact
02. Exfiltration
03. Musa Qala
04. Overwatch
05. Recon by Fire
06. Killing Zone
07. Danger Close
08. Red on Red
09. Ballistic Advantage
General
Complete name : G:\Films\Shooter.S01E.400p.OmskBird\Shooter.S01E01.400p.WEBRip.OmskBird.avi
Format : AVI
Format/Info : Audio Video Interleave
File size : 799 MiB
Duration : 41mn 37s
Overall bit rate : 2 683 Kbps
Writing application : VirtualDubMod 1.5.10.3 (build 2550/release)
Writing library : VirtualDubMod build 2550/release

Video
ID : 0
Format : MPEG-4 Visual
Format profile : Advanced Simple@L5
Format settings, BVOP : 1
Format settings, QPel : No
Format settings, GMC : No warppoints
Format settings, Matrix : Default (MPEG)
Codec ID : XVID
Codec ID/Hint : XviD
Duration : 41mn 37s
Bit rate : 1 901 Kbps
Width : 720 pixels
Height : 400 pixels
Display aspect ratio : 16:9
Frame rate : 23.976 (23976/1000) fps
Color space : YUV
Chroma subsampling : 4:2:0
Bit depth : 8 bits
Scan type : Progressive
Compression mode : Lossy
Bits/(Pixel*Frame) : 0.275
Stream size : 566 MiB (71%)
Writing library : XviD 73

Audio #1
ID : 1
Format : AC-3
Format/Info : Audio Coding 3
Mode extension : CM (complete main)
Format settings, Endianness : Big
Codec ID : 2000
Duration : 41mn 37s
Bit rate mode : Constant
Bit rate : 384 Kbps
Channel(s) : 6 channels
Channel positions : Front: L C R, Side: L R, LFE
Sampling rate : 48.0 KHz
Frame rate : 31.250 fps (1536 spf)
Compression mode : Lossy
Stream size : 114 MiB (14%)
Alignment : Split accross interleaves
Interleave, duration : 42 ms (1.00 video frame)
Interleave, preload duration : 500 ms

Audio #2
ID : 2
Format : AC-3
Format/Info : Audio Coding 3
Mode extension : CM (complete main)
Format settings, Endianness : Big
Codec ID : 2000
Duration : 41mn 37s
Bit rate mode : Constant
Bit rate : 384 Kbps
Channel(s) : 6 channels
Channel positions : Front: L C R, Side: L R, LFE
Sampling rate : 48.0 KHz
Frame rate : 31.250 fps (1536 spf)
Compression mode : Lossy
Stream size : 114 MiB (14%)
Alignment : Split accross interleaves
Interleave, duration : 42 ms (1.00 video frame)
Interleave, preload duration : 500 ms
Внимание! Раздача ведётся путём добавления новых серий; при каждом добавлении создётся новый торрент. Чтобы начать докачку новой серии, пользователям необходимо сделать следующее:
Остановить скачивание.
Удалить старый торрент у себя из клиента (старые серии удалять не надо).
Скачать новый торрент и запустить его у себя в клиенте вместо старого, при этом указать клиенту путь в старую папку куда и должно происходить скачивание новых серий.
Ваш клиент при этом должен произвести хеширование (проверку) старой папки (если не производит сам - помогите ему сделать это), и будет докачивать только те серии которых у вас ещё нет. Старые серии при этом не удаляются, а продолжают раздаваться!
Eсли вы уже удалили старые серии, то предотвратить повторную закачку старых серий можно, отжав галочку в соответсвующих местах при запуске нового торрента. По возможности, желательно не удалять старые серии как можно дольше чтобы релизёр не столько продолжал раздавать старые серии, а смог сконцентрироваться на новых.
Раздача обновлена. Добавлена 9-я серия. Приятного просмотра!

Трекер:  [ 12-Янв-2017 09:00 ]

  

Скачать .torrent

Размер .torrent файла 19 KB


Размер: 7.15 GB
Хэш (hash) релиза: 94d7d84814e7c797a07ea05d91e63436dc73d051
Подписка на обновления:

Еще никто не оставлял запись к записи скачать торрент Стрелок Shooter . Будь первым!

!Обратная связь