Скачать через торрент Мы вернулись! История динозавра Were Back! A Dinosaurs Story Фильм бесплатно в хорошем качестве torrent

Скачивайте на UnionPeer.org фильмы через торрент без регистрации. Новинки кино в хорошем качестве через торрент. На UnionPeer.org можно скачать через торрент фильмы 2014 и 2015 годов. Самые новые фильмы.

Скачать торрент Мы вернулись! История динозавра Were Back! A Dinosaurs Story бесплатно через .torrent фильм мультфильм сериал

Если у вас наблюдаются проблемы со скриншотами, переходом по ссылками, скачиванием торрентов - проблемы в блокировщике рекламы AdBlock. #хорошегоДня!


Статистика раздачи
Размер:  1.43 GB   |    Зарегистрирован:  8 месяцев   |    .torrent скачан:  28 раз   |   
Раздают:  1  
   
Загрузка...
 
Автор Сообщение

Galfimbul

avatar Galfimbul


Мы вернулись! История динозавра / We're Back! A Dinosaur's Story

«Wish for a dinosaur and watch all your dreams come true»

Страна: США
Жанр: мультфильм
Продолжительность: 01:10:52
Год выпуска: 1993
Перевод: Авторский (одноголосый закадровый) Василий Горчаков
Перевод: Авторский (одноголосый закадровый) Антон Алексеев
Русские субтитры: нет

Режиссёр: Фил Ниббелинк / Phil Nibbelink, Саймон Уэллс / Simon Wells
Роли озвучивали: Джон Гудман, Блэйз Бердаль, Ри Перлман, Джей Лено, Рене Ле Вант, Фелисити Кендал, Чарльз Флайшер, Уолтер Кронкайт, Ларри Кинг, Джулия Чайлд

Описание: Добрый профессор с говорящим именем Благовзгляд отправился во времена динозавров на своём чудесном дирижабле, способном перемещаться во времени. Поймав четырёх злобных динозавров, профессор накормил их специальным препаратом, превратившим монстров в говорящих весельчаков. После этого Благовзгляд дал динозаврам послушать своё Радио Желаний, в котором можно было услышать мечты детей, ради которых, собственно, учёный и отловил доисторических животных.

К сожалению, из-за временных неполадок в системе корабля все четыре гостя из прошлого были катапультированы прямо на голову мальчишке Луи, занимавшемуся сёрфингом. Он отнёсся к появлению «монстров» как к обычному явлению — впрочем, только он. Дабы не напугать горожан, пришельцы притворились роботами. И всё бы ничего, если бы их не разоблачила маленькая девочка, а Луи вместе со своей новой знакомой не оказался в плену у злобного братца Благовзгляда — инфернального Дурноглаза, устроившего цирк страшилищ…

Доп. информация: Дорожка с В. Горчаковым cинхронизирована и наложена ale_x2008 при помощи Sony Vegas и VirtualDubMod
За оцифрованную с VHS дорожку благодарим - buyanoff.vladimir

Дорожка с А. Алексеевым cинхронизирована и наложена ale_x2008 при помощи Sony Vegas и VirtualDubMod
За оцифрованную с VHS дорожку благодарим - серый75

Релиз

Семпл: https://yadi.sk/i/RYRN3QNI36GhFX

Качество: BDRip
Формат: AVI
Видео: XviD build 65, 704x384 (1.83:1), 23.976 fps, 2288 kbps avg, 0.35 bit/pixel
Аудио: AC3 Dolby Digital, 48000Hz, 2/0 (L,R) ch (mono), 192.00 kbps avg
Аудио 2: AC3 Dolby Digital, 48000Hz, 2/0 (L,R) ch (mono), 192.00 kbps avg
Аудио 2: AC3 Dolby Digital, 48000Hz, 2/0 (L,R) ch, 192.00 kbps avg eng
Субтитры: отсутствуют
Мы вернулись! История динозавра - We're Back! A Dinosaur's Story [by ale_x2008] fix.aviFormat : AVIFormat/Info : Audio Video InterleaveFile size : 1.43 GiBDuration : 1 h 10 minOverall bit rate : 2 884 kb/sMovie name : Мы вернулись! История динозавра / We're Back! A Dinosaur's Story (1993) BDRipDirector : yaroslaigor HQCLUBGenre : мультфильм, фэнтезиWriting application : VirtualDubMod 1.5.10.2 (build 2540/release)Writing library : VirtualDubMod build 2540/releaseCopyright : ale_x2008 | Edich2Comment : RuTracker.org

VideoID : 0Format : MPEG-4 VisualFormat profile : Advanced Simple@L5Format settings, BVOP : 1Format settings, QPel : NoFormat settings, GMC : No warppointsFormat settings, Matrix : CustomCodec ID : XVIDCodec ID/Hint : XviDDuration : 1 h 10 minBit rate : 2 289 kb/sWidth : 704 pixelsHeight : 384 pixelsDisplay aspect ratio : 1.85:1Frame rate : 23.976 (24000/1001) FPSColor space : YUVChroma subsampling : 4:2:0Bit depth : 8 bitsScan type : ProgressiveCompression mode : LossyBits/(Pixel*Frame) : 0.353Stream size : 1.13 GiB (79%)Writing library : XviD 65

Audio #1ID : 1Format : AC-3Format/Info : Audio Coding 3Mode extension : CM (complete main)Format settings, Endianness : BigCodec ID : 2000Duration : 1 h 10 minBit rate mode : ConstantBit rate : 192 kb/sChannel(s) : 2 channelsChannel positions : Front: L RSampling rate : 48.0 kHzFrame rate : 31.250 FPS (1536 spf)Compression mode : LossyStream size : 97.3 MiB (7%)Alignment : Split accross interleavesInterleave, duration : 42 ms (1.00 video frame)Interleave, preload duratio : 500 ms

Audio #2ID : 2Format : AC-3Format/Info : Audio Coding 3Mode extension : CM (complete main)Format settings, Endianness : BigCodec ID : 2000Duration : 1 h 10 minBit rate mode : ConstantBit rate : 192 kb/sChannel(s) : 2 channelsChannel positions : Front: L RSampling rate : 48.0 kHzFrame rate : 31.250 FPS (1536 spf)Compression mode : LossyStream size : 97.3 MiB (7%)Alignment : Split accross interleavesInterleave, duration : 42 ms (1.00 video frame)Interleave, preload duratio : 500 ms

Audio #3ID : 3Format : AC-3Format/Info : Audio Coding 3Mode extension : CM (complete main)Format settings, Endianness : BigCodec ID : 2000Duration : 1 h 10 minBit rate mode : ConstantBit rate : 192 kb/sChannel(s) : 2 channelsChannel positions : Front: L RSampling rate : 48.0 kHzFrame rate : 31.250 FPS (1536 spf)Compression mode : LossyStream size : 97.3 MiB (7%)Alignment : Split accross interleavesInterleave, duration : 42 ms (1.00 video frame)Interleave, preload duratio : 500 ms


Трекер:  [ 12-Янв-2017 07:00 ]

  

Скачать .torrent

Размер .torrent файла 15 KB


Размер: 1.43 GB
Хэш (hash) релиза: 549592c733875d41e78f8c4a024c4f28cfde12d2
Подписка на обновления:

Торренты, похожие на Мы вернулись! История динозавра Were Back! A Dinosaurs Story скачать торрент

Форум Название Автор Размер S L Добавлен
Мультфильмы до 2016 ·· Мы вернулись! История динозавра / We're Back! A Dinosaur's Story (Фил Ниббелинк / Phil Nibbelink, Саймон Уэллс / Simon Wells) [1993, США, мультфильм, BDRip] AVO Galfimbul 15642787841.46 GB 0 0 1483261195

11:59

1-Янв-17

Мультфильмы до 2016 ·· Мы вернулись! История динозавра / We're Back! A Dinosaur's Story (Фил Ниббелинк / Phil Nibbelink, Саймон Уэллс / Simon Wells) [1993, США, мультфильм, фэнтези, приключения, семейный, BDRip] MVO (EUR/СТС) + AVO (Дохалов) + Original Eng + subs (Rus, En) Galfimbul 18026847171.68 GB 0 0 1463896603

08:56

22-Май-16

Мультфильмы до 2016 ·· Мы вернулись! История динозавра / We're Back! A Dinosaur's Story (Фил Ниббелинк,Саймон Уэллс,Дик Зондаг,Ральф Зондаг/Dick Zondag,Ralph Zondag,Phil Nibbel) [1993,США,мультфильм,фэнтези,приключения,семейный,Blu-ray disc 1080p] [EUR] MVO+Rus Sub,Eng Galfimbul 4135110469338.51 GB 0 0 1456552967

09:02

27-Фев-16

Мультфильмы до 2016 ·· Мы вернулись! История динозавра / We're Back! A Dinosaur's Story (Дик Зондаг, Ральф Зондаг, Фил Ниббелинк, Саймон Уэллс / Dick Zondag, Ralph Zondag, Phil Nibbelink, Simon Wells) [1993, мультфильм, приключения, семейный, DVDRip] Mvo + Avo (Д Galfimbul 15668572161.46 GB 0 0 1342801980

19:33

20-Июл-12

Мультфильмы до 2016 ·· Мы вернулись! История динозавров / We're Back! A Dinosaur's Story (Дик Зондаг, Ральф Зондаг, Фил Ниббелинк, Саймон Уэллс / Dick Zondag, Ralph Zondag, Phil Nibbelink, Simon Wells)[1993, мультфильм, DVDRip-AVC] MVO + AVO (Дохалов) + UKR + ENG Galfimbul 28353742902.64 GB 0 0 1342801860

19:31

20-Июл-12

Мультфильмы до 2016 ·· Мы вернулись! История динозавров / We're Back! A Dinosaur's Story (Дик Зондаг, Ральф Зондаг, Фил Ниббелинк, Саймон Уэллс / Dick Zondag, Ralph Zondag, Phil Nibbelink, Simon Wells)[1993, мультфильм, DVDRip] AVO(Дохалов)+UKR(MVO)+ENG+eng sub uzi2009 16592206781.55 GB 0 0 1293310884

00:01

26-Дек-10

Еще никто не оставлял запись к записи скачать торрент Мы вернулись! История динозавра Were Back! A Dinosaurs Story . Будь первым!

!Обратная связь