Скачать через торрент Голубая кровь Blue Bloods Фильм бесплатно в хорошем качестве torrent

Скачивайте на UnionPeer.org фильмы через торрент без регистрации. Новинки кино в хорошем качестве через торрент. На UnionPeer.org можно скачать через торрент фильмы 2014 и 2015 годов. Самые новые фильмы.

Скачать торрент Голубая кровь Blue Bloods бесплатно через .torrent фильм мультфильм сериал

Если у вас наблюдаются проблемы со скриншотами, переходом по ссылками, скачиванием торрентов - проблемы в блокировщике рекламы AdBlock. #хорошегоДня!


Статистика раздачи
Размер:  12.32 GB   |    Зарегистрирован:  9 месяцев   |    .torrent скачан:  15 раз   |   
Раздают:  1  
   
Загрузка...
 
Автор Сообщение

Galfimbul

avatar Galfimbul


<span class="post-font-serif1">Голубая кровь / Blue Bloods</span>
Год выпуска: 2012
Страна: США
Жанр: драма, криминал
Продолжительность: ~ 00:43:00
Перевод: Профессиональный двухголосый закадровый, CBS Drama
Режиссёр: Ральф Хемекер, Фредерик Кинг Келлер, Майкл Прессман
В ролях: Донни Уолберг, Бриджет Мойнэхэн, Дженнифер Винер, Лен Кариу, Уилл Эстес, Том Селлек, Майк Хэвок, Флекс Александр, Коллин Клинтон, Дэвид Энзуэло
Описание: Френк Рейган — глава полиции Нью-Йорка и патриарх семейства Рейганов, которым он управляет столь же дипломатично, как управляет полицией, даже когда имеет дело с политикой, что досаждала его чрезмерно смелому отцу, Генри, когда тот был главой полиции. Источником гордости и беспокойства Френка является его старший сын, Дэнни, опытный детектив, семейный человек и ветеран войны в Ираке, который иногда прибегает к сомнительным методам для раскрытия дел.
Единственная женщина в семье, Эрин, работает помощником прокурора Нью-Йорка, мать-одиночка, которая служит компасом закона для братьев и отца. Джейми — младший из Рейганов, недавно закончил юридический Гарварда и считается «золотым ребенком» семьи. Но он решил следовать семейной традиции, и отказался от работы в престижной юридической фирме, чтобы стать копом. Его решение вроде как поддерживает его девушка, красавица Сидни, начинающий адвокат. Жизнь Джейми внезапно берет крутой поворот, когда ему предлагают участвовать во внутреннем расследовании, о котором не знает даже его отец, и которое может повлиять на всю семью.

Все раздачи сериала - <a href="tracker.php?f=189,2366,842&nm=Blue+Bloods" class="postLink">...189,2366,842&nm=Blue+Bloods</a>
Качество: WEB-DL 720p
Формат: MKV
Видео кодек: MPEG-4 AVC
Аудио кодек: AC3
Видео: 1280x720 at 23.976 fps, MPEG-4 AVC, ~4 081 kbps avg, 0.185 bit/pixel
Аудио #1: Russian: 48 kHz, AC3 Dolby Digital, 2/0 (L,R) ch, ~192 kbps avg |Двухголосый закадровый, CBS Drama|
Аудио #2: English: 48 kHz, AC3, 3/2 (L,C,R,l,r) + LFE ch, ~384.00 kbps avg
Субтитры: English
General
Unique ID : 227997845737518662086280855652476288362 (0xAB86C9AFA18B6592B5A94A45325A7D6A)
Complete name : ...Blue.Bloods.S03E01.720p.WEB-DL.DD2.0.H.264-CasStudio.mkv
Format : Matroska
Format version : Version 4 / Version 2
File size : 1.34 GiB
Duration : 41 min 3 s
Overall bit rate : 4 659 kb/s
Movie name : 3x01: Family Business - Release by SerGV for CasStudio
Encoded date : UTC 2017-01-05 08:26:34
Writing application : mkvmerge v7.7.0 ('Six Voices') 64bit built on Feb 28 2015 23:39:33
Writing library : libebml v1.3.1 + libmatroska v1.4.2
Cover : Yes
Attachments : cover.jpg

Video
ID : 1
Format : AVC
Format/Info : Advanced Video Codec
Format profile : High@L3.1
Format settings, CABAC : No
Format settings, ReFrames : 2 frames
Codec ID : V_MPEG4/ISO/AVC
Duration : 41 min 3 s
Bit rate : 4 081 kb/s
Width : 1 280 pixels
Height : 720 pixels
Display aspect ratio : 16:9
Frame rate mode : Constant
Frame rate : 23.976 (23976/1000) FPS
Color space : YUV
Chroma subsampling : 4:2:0
Bit depth : 8 bits
Scan type : Progressive
Bits/(Pixel*Frame) : 0.185
Stream size : 1.17 GiB (88%)
Title : Blue Bloods, 3x01: Family Business - Release by SerGV for CasStudio
Language : English
Default : Yes
Forced : No
Color range : Limited
Color primaries : BT.709
Transfer characteristics : BT.709
Matrix coefficients : BT.709

Audio #1
ID : 2
Format : AC-3
Format/Info : Audio Coding 3
Mode extension : CM (complete main)
Format settings, Endianness : Big
Codec ID : A_AC3
Duration : 41 min 3 s
Bit rate mode : Constant
Bit rate : 192 kb/s
Channel(s) : 2 channels
Channel positions : Front: L R
Sampling rate : 48.0 kHz
Frame rate : 31.250 FPS (1536 spf)
Bit depth : 16 bits
Compression mode : Lossy
Stream size : 56.4 MiB (4%)
Title : DD 2.0 @ 192 kbps - Двухголосый закадровый, CBS Drama
Language : Russian
Default : Yes
Forced : No

Audio #2
ID : 3
Format : AC-3
Format/Info : Audio Coding 3
Mode extension : CM (complete main)
Format settings, Endianness : Big
Codec ID : A_AC3
Duration : 41 min 3 s
Bit rate mode : Constant
Bit rate : 384 kb/s
Channel(s) : 6 channels
Channel positions : Front: L C R, Side: L R, LFE
Sampling rate : 48.0 kHz
Frame rate : 31.250 FPS (1536 spf)
Bit depth : 16 bits
Compression mode : Lossy
Stream size : 113 MiB (8%)
Title : DD 5.1 @ 384 kbps - Original
Language : English
Default : No
Forced : No

Text
ID : 4
Format : UTF-8
Codec ID : S_TEXT/UTF8
Codec ID/Info : UTF-8 Plain Text
Duration : 40 min 22 s
Bit rate : 72 b/s
Count of elements : 753
Stream size : 21.3 KiB (0%)
Title : English
Language : English
Default : No
Forced : No
Когда раздача ведётся путём добавления новых серий, при каждом добавлении создётся новый торрент. Чтобы начать докачку новой серии, пользователям необходимо сделать следующее:

1. остановить скачивание,

2. удалить старый торрент у себя из клиента (старые серии удалять не надо),

3. скачать новый торрент и запустить его у себя в клиенте вместо старого, при этом указать клиенту путь в старую папку, куда и должно происходить скачивание новых серий.

Ваш клиент при этом должен произвести хеширование (проверку) старой папки (если не производит сам - помогите ему сделать это), и будет докачивать только те серии, которых у вас ещё нет. Старые серии при этом не удаляются, а продолжают раздаваться!

Eсли вы уже удалили старые серии, то предотвратить повторную закачку старых серий можно, отжав галочку в соответсвующих местах при запуске нового торрента. По возможности, желательно не удалять старые серии как можно дольше, чтобы релизёр не столько продолжал раздавать старые серии, а смог сконцентрироваться на новых.

Релиз от:

Трекер:  [ 12-Янв-2017 07:00 ]

  

Скачать .torrent

Размер .torrent файла 32 KB


Размер: 12.32 GB
Хэш (hash) релиза: 2e0d63a1d5eb0135090ee40e637b2e2cb21646a8
Подписка на обновления:

Еще никто не оставлял запись к записи скачать торрент Голубая кровь Blue Bloods . Будь первым!

!Обратная связь