Скачать через торрент Волевой приём Серии: 1-2 из 2 Фильм бесплатно в хорошем качестве torrent

Скачивайте на UnionPeer.org фильмы через торрент без регистрации. Новинки кино в хорошем качестве через торрент. На UnionPeer.org можно скачать через торрент фильмы 2014 и 2015 годов. Самые новые фильмы.

Скачать торрент Волевой приём Серии: 1-2 из 2 бесплатно через .torrent фильм мультфильм сериал

Статистика раздачи
Размер:  1.17 GB   |    Зарегистрирован:  1 месяц 15 дней   |    .torrent скачан:  77 раз   |   
Раздают:  2  
   
 
Автор Сообщение

Galfimbul

avatar Galfimbul


Волевой приём
Год выпуска: 2016
Производство:АртПикчерс, Кинокомпания «Бабблгам продакшн»
Жанр: драма, спортивный фильм
Продолжительность: 00:46:00
Субтитры: нет
Режиссёр: Дмитрий Булин
В ролях: Евгений Романцов, Илья Алексеев, Светлана Павлова, Александр Тютин, Сергей Иванюк, Алексей Медведев, Денис Бобышев
Описание: Макс Кораблев завязал с хоккеем, потому что его одержимость разрушала жизнь и ему, и его близким. Он теперь работает в полиции и однажды задерживает молодого парня, Никиту, которому грозит срок... А парень этот - талантливый хоккеист местной команды. Помогая Никите избежать ошибок, которые совершил он сам, Максим разбирается в себе и избавляется от призраков прошлого.
<a href="tracker.php?f=9&nm=%D0%92%D0%BE%D0%BB%D0%B5%D0%B2%D0%BE%D0%B9%20%D0%BF%D1%80%D0%B8%D0%B5%D0%BC" class="postLink">Все раздачи сериала</a> / Сэмпл
Релиз от:
Качество: HDTVRip
Формат: AVI
Видео кодек: XviD
Аудио кодек: AC3
Видео: 720x400 (16:9), 25.000 fps, XviD build 73, 1984 Kbps, 0.27 Bits/Pixel
Аудио: 48 kHz, AC3 Dolby Digital, 2 ch, 192 Kbps
Реклама: Нет
General
Complete name : Downloads\Волевой приём (2016).HDTVRip.RG.Russkie.serialy.&.Files-x\
Format : AVI
Format/Info : Audio Video Interleave
File size : 600 MiB
Duration : 46mn 26s
Overall bit rate : 1 806 Kbps
Writing application : VirtualDubMod 1.5.10.3 | www.virtualdub-fr.org || (build 2550/release)
Writing library : VirtualDubMod build 2550/release
Video #0
ID : 0
Format : MPEG-4 Visual
Format profile : Advanced Simple@L5
Format settings, BVOP : 1
Format settings, QPel : No
Format settings, GMC : No warppoints
Format settings, Matrix : Custom
Codec ID : XVID
Codec ID/Hint : XviD
Duration : 46mn 26s
Bit rate : 1 604 Kbps
Width : 720 pixels
Height : 400 pixels
Display aspect ratio : 16:9
Frame rate : 25.000 fps
Color space : YUV
Chroma subsampling : 4:2:0
Bit depth : 8 bits
Scan type : Progressive
Compression mode : Lossy
Bits/(Pixel*Frame) : 0.223
Stream size : 533 MiB (89%)
Writing library : XviD 73
Audio #1
ID : 1
Format : AC-3
Format/Info : Audio Coding 3
Mode extension : CM (complete main)
Format settings, Endianness : Big
Codec ID : 2000
Duration : 46mn 26s
Bit rate mode : Constant
Bit rate : 192 Kbps
Channel(s) : 2 channels
Channel positions : Front: L R
Sampling rate : 48.0 KHz
Bit depth : 16 bits
Compression mode : Lossy
Stream size : 63.8 MiB (11%)
Alignment : Split accross interleaves
Interleave, duration : 40 ms (1.00 video frame)
Interleave, preload duration : 500 ms


Трекер:  [ 12-Янв-2017 03:00 ]

  

Скачать .torrent

Размер .torrent файла 12 KB


Размер: 1.17 GB
Хэш (hash) релиза: 3a510545d8da412ac70edfedf19afdb2df573bbb
Подписка на обновления:

Торренты, похожие на Волевой приём Серии: 1-2 из 2 скачать торрент

Форум Название Автор Размер S L Добавлен
Российские сериалы ·· Волевой прием / Серии: 1-2 из 2 (Дмитрий Булин) [2016, драма, спорт, HDTV (1080i)] Galfimbul 49641937684.62 GB 0 0 1480220546

07:22

27-Ноя-16

kikimura

Что за бред? "Одержимость хоккеем разрушала жизнь".
Все в НХЛ одержимы хоккеем. Кому они разрушают жизнь? Он шизик? Даже смотреть не хочу эту чушь

Хотите добавить комментарий к записи скачать торрент Волевой приём Серии: 1-2 из 2

!Обратная связь